\m/ 80's metal \m/

Информационно-аналитический форум "80 см пыли" (In Search We Trust) "У нас никто никуда не спешит"
Me For You - http://me-4u.com
It is currently 18 Oct 2019

All times are UTC + 3 hours

Spoiler
Chat - temporary registration for foreign users (please leave your application here)







Post new topic Reply to topic  [ 15 posts ] 
Author Message
 
PostPosted: 29 Feb 2016 
Генеральный thrasher
User avatar
Joined: 03 Oct 2008
Posts: 3738
Lоcаtion: Ханты-Мансийский АО
Age: 44
Name: Сергей
Image

Year:1990 (2013 Re-Issue)
Style:Thrash Metal
Country:U.K.
Archive:Flac+Cue+Log+Scans
Size:440Mb
Source:my CD
Label:Divebomb Records

Line-Up:
Andy Mitchell - guitars
Steve Todd - drums
Mark Duffy - vocals
Andy Burton - bass

Tracklist:
01. The Shrine 06:51
02. Psychotic 05:46
03. Sword Of Damocles 05:11
04. Hammer To The Skull 04:22
05. Food Of The Gods 05:54
06. Disciples 05:52
07. Last Breath Of Life 01:43
08. Black Is The Mask 05:57
09. Execution 05:03
Bonus Tracks:
10. Beauty & The Beast 06:57
11. Eternity's End 03:33
12. Oh Well 03:05

"Cue"
REM GENRE "Thrash Metal"
REM DATE 2013
REM DISCID 980E330C
REM COMMENT "ExactAudioCopy v1.1"
PERFORMER "Toranaga"
TITLE "God's Gift (Deluxe Edition)"
FILE "Toranaga - God's Gift (Deluxe Edition).flac" WAVE
TRACK 01 AUDIO
TITLE "The Shrine"
PERFORMER "Toranaga"
FLAGS DCP
INDEX 01 00:00:00
TRACK 02 AUDIO
TITLE "Psychotic"
PERFORMER "Toranaga"
FLAGS DCP
INDEX 01 06:51:72
TRACK 03 AUDIO
TITLE "Sword Of Damocles"
PERFORMER "Toranaga"
FLAGS DCP
INDEX 01 12:38:44
TRACK 04 AUDIO
TITLE "Hammer To The Skull"
PERFORMER "Toranaga"
FLAGS DCP
INDEX 01 17:53:41
TRACK 05 AUDIO
TITLE "Food Of The Gods"
PERFORMER "Toranaga"
FLAGS DCP
INDEX 01 22:16:16
TRACK 06 AUDIO
TITLE "Disciples"
PERFORMER "Toranaga"
FLAGS DCP
INDEX 01 28:13:39
TRACK 07 AUDIO
TITLE "Last Breath Of Life"
PERFORMER "Toranaga"
FLAGS DCP
INDEX 01 34:09:39
TRACK 08 AUDIO
TITLE "Black Is The Mask"
PERFORMER "Toranaga"
FLAGS DCP
INDEX 01 35:56:11
TRACK 09 AUDIO
TITLE "Execution"
PERFORMER "Toranaga"
FLAGS DCP
INDEX 01 41:55:06
TRACK 10 AUDIO
TITLE "Beauty & The Beast"
PERFORMER "Toranaga"
FLAGS DCP
INDEX 01 46:58:59
TRACK 11 AUDIO
TITLE "Eternity's End"
PERFORMER "Toranaga"
FLAGS DCP
INDEX 01 53:56:39
TRACK 12 AUDIO
TITLE "Oh Well"
PERFORMER "Toranaga"
FLAGS DCP
INDEX 01 57:29:68

"Log"
Exact Audio Copy V1.1 from 23. June 2015

Отчёт EAC об извлечении, выполненном 25. февраля 2016, 10:51

Toranaga / God's Gift (Deluxe Edition)

Дисковод: HL-DT-STDVDRAM GTA0N Adapter: 1 ID: 0

Режим чтения : Достоверность
Использование точного потока : Да
Отключение кэша аудио : Да
Использование указателей C2 : Нет

Коррекция смещения при чтении : 102
Способность читать области Lead-in и Lead-out : Нет
Заполнение пропущенных сэмплов тишиной : Да
Удаление блоков с тишиной в начале и конце : Нет
При вычислениях CRC использовались нулевые сэмплы : Да
Интерфейс : Встроенный Win32-интерфейс для Win NT/2000

Выходной формат : Пользовательский кодировщик
Выбранный битрейт : 768 kBit/s
Качество : Высокий
Добавление ID3-тега : Нет
Утилита сжатия : C:\Program Files (x86)\Exact Audio Copy\FLAC\FLAC.EXE
Дополнительные параметры : -6 -V -T "ARTIST=%artist%" -T "TITLE=%title%" -T "ALBUM=%albumtitle%" -T "DATE=%year%" -T "TRACKNUMBER=%tracknr%" -T "GENRE=%genre%" -T "COMMENT=%comment%" -T "BAND=%albuminterpret%" -T "ALBUMARTIST=%albuminterpret%" -T "COMPOSER=%composer%" %haslyrics%--tag-from-file=LYRICS="%lyricsfile%"%haslyrics% -T "DISCNUMBER=%cdnumber%" -T "TOTALDISCS=%totalcds%" -T "TOTALTRACKS=%numtracks%" %hascover%--picture="%coverfile%"%hascover% %source% -o %dest%


TOC извлечённого CD

Трек | Старт | Длительность | Начальный сектор | Конечный сектор
---------------------------------------------------------------------
1 | 0:00.00 | 6:51.72 | 0 | 30896
2 | 6:51.72 | 5:46.47 | 30897 | 56893
3 | 12:38.44 | 5:14.72 | 56894 | 80515
4 | 17:53.41 | 4:22.50 | 80516 | 100215
5 | 22:16.16 | 5:57.23 | 100216 | 127013
6 | 28:13.39 | 5:56.00 | 127014 | 153713
7 | 34:09.39 | 1:46.47 | 153714 | 161710
8 | 35:56.11 | 5:58.70 | 161711 | 188630
9 | 41:55.06 | 5:03.53 | 188631 | 211408
10 | 46:58.59 | 6:57.55 | 211409 | 242738
11 | 53:56.39 | 3:33.29 | 242739 | 258742
12 | 57:29.68 | 3:05.53 | 258743 | 272670


Характеристики диапазона извлечения и сообщения об ошибках

Выбранный диапазон

Имя файла C:\Users\магазин\Music\Toranaga - God's Gift (Deluxe Edition).wav

Пиковый уровень 98.8 %
Скорость извлечения 2.2 X
Качество диапазона 100.0 %
CRC копии 1BF20BDB
Копирование... OK

Ошибок не произошло


AccurateRip: сводка

Трек 1 : извлечено точно (доверие 1) [54F5F56F] (AR v2)
Трек 2 : извлечено точно (доверие 1) [933A4F40] (AR v2)
Трек 3 : извлечено точно (доверие 1) [74FE1F31] (AR v2)
Трек 4 : извлечено точно (доверие 1) [81DA3E43] (AR v2)
Трек 5 : извлечено точно (доверие 1) [0651DB09] (AR v2)
Трек 6 : извлечено точно (доверие 1) [2EDD188C] (AR v2)
Трек 7 : извлечено точно (доверие 1) [252BF2D0] (AR v2)
Трек 8 : извлечено точно (доверие 1) [F46F2E81] (AR v2)
Трек 9 : извлечено точно (доверие 1) [CE59B417] (AR v2)
Трек 10 : извлечено точно (доверие 1) [AF7A0383] (AR v2)
Трек 11 : извлечено точно (доверие 1) [8CBF0B55] (AR v2)
Трек 12 : извлечено точно (доверие 1) [6CF394A7] (AR v2)

Все треки извлечены точно

Конец отчёта

---- CUETools DB Plugin V2.1.6

[CTDB TOCID: W4w7eqYxeRL3tgQfCnb8XcZvkl0-] found
Submit result: W4w7eqYxeRL3tgQfCnb8XcZvkl0- has been confirmed
Track | CTDB Status
1 | (3/3) Accurately ripped
2 | (3/3) Accurately ripped
3 | (3/3) Accurately ripped
4 | (3/3) Accurately ripped
5 | (3/3) Accurately ripped
6 | (3/3) Accurately ripped
7 | (3/3) Accurately ripped
8 | (3/3) Accurately ripped
9 | (3/3) Accurately ripped
10 | (3/3) Accurately ripped
11 | (3/3) Accurately ripped
12 | (3/3) Accurately ripped


God's Gift


Top
 Profile  
 
 
PostPosted: 29 Feb 2016 
Прокъмитолист
User avatar
Joined: 12 Aug 2007
Posts: 6624
Lоcаtion: Санктъ-Петербуркъ
Age: 52
Name: Олекъ
спасибо, Серёг! :thanx:

_________________
прокъметол - это музыко, от которово есть прок (ы)


Top
 Profile  
 
 
PostPosted: 29 Feb 2016 
ТрэшЭрос
User avatar
Joined: 18 Jul 2011
Posts: 2305
Lоcаtion: Гулькевичи
Age: 44
Name: Александр
thorbeorn, :thanx: :lob:

_________________
Thrash no trash!!!


Top
 Profile E-mail  
 
 
PostPosted: 29 Feb 2016 
Хиппей (support team)
User avatar
Joined: 30 Jul 2007
Posts: 114899
Lоcаtion: Киев (Kyiv, UA)
Age: 46
Name: Andrey
:thanx:

mirror: iFolder l Narod l M-Cloud

_________________


Top
 Profile E-mail  
 
 
PostPosted: 29 Feb 2016 
Генеральный thrasher
User avatar
Joined: 03 Oct 2008
Posts: 3738
Lоcаtion: Ханты-Мансийский АО
Age: 44
Name: Сергей
Что по звуку скажете?По моему очень неплохо... :kz:


Top
 Profile  
 
 
PostPosted: 29 Feb 2016 
Old Time Rock`n`Roll
User avatar
Joined: 23 Jun 2008
Posts: 3490
Warnings: 1
Lоcаtion: г.Ульяновск
Age: 41
Name: Константин
Граци)

Image


Top
 Profile  
 
 
PostPosted: 29 Feb 2016 
Анатолий
User avatar
Joined: 18 Oct 2008
Posts: 3572
Lоcаtion: Армавир
Age: 42
Name: Анатолий
Спасибо!!! :thanx: :true:

А вот этот трек куда-то всё-таки запропостился... "Pleasure From Pain".

P.S. Безумно уважаю английский Thrash.


Top
 Profile E-mail  
 
 
PostPosted: 29 Feb 2016 
Хиппей (support team)
User avatar
Joined: 30 Jul 2007
Posts: 114899
Lоcаtion: Киев (Kyiv, UA)
Age: 46
Name: Andrey
Что по звуку скажете?По моему очень неплохо... :kz:

Звук просто ойитительный! :lob: :lob: :lob:

А по альбому и так давно ясно - 8/10 :true: :true: :true:

_________________


Top
 Profile E-mail  
 
 
PostPosted: 29 Feb 2016 
Хиппей (support team)
User avatar
Joined: 30 Jul 2007
Posts: 114899
Lоcаtion: Киев (Kyiv, UA)
Age: 46
Name: Andrey
Privateer wrote:
вот этот трек куда-то всё-таки запропостился... "Pleasure From Pain".

Хм, Толя, у тебя он явно на кассете был дописан с миника :arrow: viewtopic.php?p=58336#p58336 :pardon:
Вот на полном ольбоме и запропостился :slo:

_________________


Top
 Profile E-mail  
 
 
PostPosted: 29 Feb 2016 
Анатолий
User avatar
Joined: 18 Oct 2008
Posts: 3572
Lоcаtion: Армавир
Age: 42
Name: Анатолий
Кто-то видимо не послушал переиздание оформленное здесь. ;)


Top
 Profile E-mail  
 
 
PostPosted: 29 Feb 2016 
Хиппей (support team)
User avatar
Joined: 30 Jul 2007
Posts: 114899
Lоcаtion: Киев (Kyiv, UA)
Age: 46
Name: Andrey
Кто-то видимо не послушал переиздание оформленное здесь. ;)

Да уже часа два слушаю. И?.. :vic:

http://www.last.fm/ru/user/Klausader

_________________


Top
 Profile E-mail  
 
 
PostPosted: 29 Feb 2016 
Old Time Rock`n`Roll
User avatar
Joined: 23 Jun 2008
Posts: 3490
Warnings: 1
Lоcаtion: г.Ульяновск
Age: 41
Name: Константин
А я этой песни вообще не нахожу в дискографии коллектива)


Top
 Profile  
 
 
PostPosted: 29 Feb 2016 
Анатолий
User avatar
Joined: 18 Oct 2008
Posts: 3572
Lоcаtion: Армавир
Age: 42
Name: Анатолий
Scatterbrain wrote:
Да уже часа два слушаю. И?..


И заключается в том что... композиции нет среди прочих бонусов на этом издании... Вопрос: куда она делась???

oldrocker wrote:
А я этой песни вообще не нахожу в дискографии коллектива)


По какой-то не понятной причине или причинам, вообще этот миник целиком не попал в дискографию коллектива.

На данном переиздании три из четырёх композиции с миника.


Top
 Profile E-mail  
 
 
PostPosted: 29 Feb 2016 
Хиппей (support team)
User avatar
Joined: 30 Jul 2007
Posts: 114899
Lоcаtion: Киев (Kyiv, UA)
Age: 46
Name: Andrey
Privateer wrote:
На данном переиздании три из четырёх композиции с миника.

Драсти. И интро нет, вот к этому трэку, если типа с миником сравнивать:
Quote:
1. Eden - Beauty And The Beast - 07:09

По ходу, песни вообще от фонаря впихунли на диск.

Image

_________________


Top
 Profile E-mail  
 
 
PostPosted: 15 Mar 2016 
Metal Collector
User avatar
Joined: 16 Nov 2008
Posts: 1267
Lоcаtion: Химки
Age: 36
Name: Андрей
Тоже опечален этим фактом.


Top
 Profile E-mail  
 
Display posts from previous:  Sort by  
Post new topic Reply to topic  [ 15 posts ] 

All times are UTC + 3 hours


Who is online

Users browsing this forum: No registered users and 1 guest


You cannot post new topics in this forum
You cannot reply to topics in this forum
You cannot edit your posts in this forum
You cannot delete your posts in this forum
You cannot post attachments in this forum

Search for:
Яндекс.Метрика
Powered by phpBB © 2000, 2002, 2005, 2007 phpBB Group