\m/ 80's metal \m/

Информационно-аналитический форум "80 см пыли" (In Search We Trust) "У нас никто никуда не спешит"
Me For You - http://me-4u.com
It is currently 21 Jul 2019

All times are UTC + 3 hours

Spoiler
Chat - temporary registration for foreign users (please leave your application here)







Post new topic Reply to topic  [ 8 posts ] 
Author Message
 
PostPosted: 23 Jul 2015 
Генеральный thrasher
User avatar
Joined: 03 Oct 2008
Posts: 3714
Lоcаtion: Ханты-Мансийский АО
Age: 44
Name: Сергей
Залито по просьбе Everhard.Рип от gnoppi есть на рутрэкере,но он голый (без сканов).Рипнул давно,но сканы сделал лишь сегодня.Как я уже писал - в квартире ремонт...

Image

Year:1991
Style:Thrash Metal
Country:Germany
Audio:Flac+Cue+Log+Scans
Size:372Mb
Source:my CD
Label:Black Fantasy

Line-Up:
Andreas Wendel - bass,vocals
Michael Kramer - drums,vocals
Frank Ungewickel - guitars,vocals
Stefan Kaufmann - guitars

Tracklist:
01. Two Sided Existence 05:04
02. Misantrophy 04:35
03. Retrospective 05:04
04. Disintegration 08:00
05. Destructive Ways 04:57
06. Lust For Life 04:29
07. Two Wishes 05:24
08. Wings Of Death 04:33
09. X.T.C. 04:00

"Cue"
REM GENRE "Thrash Metal"
REM DATE 1991
REM DISCID 900AD809
REM COMMENT "ExactAudioCopy v0.99pb5"
PERFORMER "Toxin"
TITLE "Misanthropy"
FILE "Toxin - Misanthropy.flac" WAVE
TRACK 01 AUDIO
TITLE "Two Sided Existence"
PERFORMER "Toxin"
INDEX 01 00:00:00
TRACK 02 AUDIO
TITLE "Misanthropy"
PERFORMER "Toxin"
INDEX 00 05:04:05
INDEX 01 05:04:53
TRACK 03 AUDIO
TITLE "Retrospective"
PERFORMER "Toxin"
INDEX 00 09:39:58
INDEX 01 09:40:53
TRACK 04 AUDIO
TITLE "Disintegration"
PERFORMER "Toxin"
INDEX 00 14:45:43
INDEX 01 14:46:10
TRACK 05 AUDIO
TITLE "Destructive Ways"
PERFORMER "Toxin"
INDEX 00 22:47:10
INDEX 01 22:47:53
TRACK 06 AUDIO
TITLE "Lust For Life"
PERFORMER "Toxin"
INDEX 00 27:45:18
INDEX 01 27:46:23
TRACK 07 AUDIO
TITLE "Two Wishes"
PERFORMER "Toxin"
INDEX 00 32:16:20
INDEX 01 32:17:05
TRACK 08 AUDIO
TITLE "Wings Of Death"
PERFORMER "Toxin"
INDEX 00 37:41:50
INDEX 01 37:42:20
TRACK 09 AUDIO
TITLE "X.T.C."
PERFORMER "Toxin"
INDEX 00 42:15:68
INDEX 01 42:16:23

"Log"
Exact Audio Copy V0.99 prebeta 5 from 4. May 2009

Отчёт EAC об извлечении, выполненном 15. июля 2015, 14:08

Toxin / Misanthropy

Дисковод: MATSHITADVD-RAM UJ8A0AS Adapter: 0 ID: 1

Режим чтения : Достоверность
Использование точного потока : Да
Отключение кэша аудио : Да
Использование указателей C2 : Нет

Коррекция смещения при чтении : 102
Способность читать области Lead-in и Lead-out : Нет
Заполнение пропущенных сэмплов тишиной : Да
Удаление блоков с тишиной в начале и конце : Нет
При вычислениях CRC использовались нулевые сэмплы : Да
Интерфейс : Встроенный Win32-интерфейс для Win NT/2000

Выходной формат : Пользовательский кодировщик
Выбранный битрейт : 1024 kBit/s
Качество : Высокий
Добавление ID3-тэга : Нет
Утилита сжатия : C:\Program Files\Exact Audio Copy\FLAC\FLAC.EXE
Дополнительные параметры : -6 -V -T "ARTIST=%a" -T "TITLE=%t" -T "ALBUM=%g" -T "DATE=%y" -T "TRACKNUMBER=%n" -T "GENRE=%m" -T "COMMENT=%e" %s -o %d


TOC извлечённого CD

Трек | Старт | Длительность | Начальный сектор | Конечный сектор
---------------------------------------------------------------------
1 | 0:00.00 | 5:04.53 | 0 | 22852
2 | 5:04.53 | 4:36.00 | 22853 | 43552
3 | 9:40.53 | 5:05.32 | 43553 | 66459
4 | 14:46.10 | 8:01.43 | 66460 | 102577
5 | 22:47.53 | 4:58.45 | 102578 | 124972
6 | 27:46.23 | 4:30.57 | 124973 | 145279
7 | 32:17.05 | 5:25.15 | 145280 | 169669
8 | 37:42.20 | 4:34.03 | 169670 | 190222
9 | 42:16.23 | 4:00.45 | 190223 | 208267


Характеристики диапазона извлечения и сообщения об ошибках

Выбранный диапазон

Имя файла C:\Users\эксперт\Music\Toxin - Misanthropy.wav

Пиковый уровень 98.3 %
Качество диапазона 100.0 %
CRC копии BF22A7D6
Копирование... OK

Ошибок не произошло


AccurateRip: сводка

Трек 1 точность не определена (достоверность 2) [E44B4CBD], AccurateRip вернул [48A918C9]
Трек 2 точность не определена (достоверность 2) [BC0A55A8], AccurateRip вернул [ED8D921F]
Трек 3 точность не определена (достоверность 2) [3E25C405], AccurateRip вернул [415A5698]
Трек 4 точность не определена (достоверность 2) [D32688F5], AccurateRip вернул [3F47B2AF]
Трек 5 точность не определена (достоверность 2) [AA25436B], AccurateRip вернул [1429CD09]
Трек 6 точность не определена (достоверность 2) [01B66BB5], AccurateRip вернул [B7FF2A7E]
Трек 7 точность не определена (достоверность 2) [879EAC87], AccurateRip вернул [D95E728E]
Трек 8 точность не определена (достоверность 2) [B5C35ED6], AccurateRip вернул [A1474DD8]
Трек 9 точность не определена (достоверность 2) [18DD26E2], AccurateRip вернул [0065D017]

Ни один трек не прошёл проверки на точность
В вашей базе может быть иной вариант штамповки диска

Конец отчёта


Misantrophy


Last edited by thorbeorn on 24 Jul 2015, edited 1 time in total.

Top
 Profile  
 
 
PostPosted: 23 Jul 2015 
\m/ 80 см сала \m/
User avatar
Joined: 12 Mar 2012
Posts: 2590
Age: 26
Name: Nick
:thanx:

_________________
1990 AUROPHON BRAINSTORM (Germany) - lossless
1994 MAUSOLEUM CLASSIX (Belgium-Germany) - lossless
1998 VA - GRIM HARVEST - Complete Metal Massacre Volumes I-XII


Top
 Profile  
 
 
PostPosted: 23 Jul 2015 
Прокъмитолист
User avatar
Joined: 12 Aug 2007
Posts: 6578
Lоcаtion: Санктъ-Петербуркъ
Age: 51
Name: Олекъ
:thanx:

_________________
прокъметол - это музыко, от которово есть прок (ы)


Top
 Profile  
 
 
PostPosted: 23 Jul 2015 
консэрваторъ
User avatar
Joined: 11 Aug 2007
Posts: 17053
Lоcаtion: Псков
Age: 45
Name: Сергей
Вот Серёга мочит!.. Даже во время ремонта как-то успевает рипать и сканить!.. Представляю какой это жоп, когда вокруг чемоданы на коропках и пыль железобетонная... :lob: Там наверное жона с тёщей за это пилят дополнительно... Достойно безграничного уважения сие действо!..

_________________
THRASH 'EM ALL


Top
 Profile E-mail  
 
 
PostPosted: 23 Jul 2015 
Генеральный thrasher
User avatar
Joined: 03 Oct 2008
Posts: 3714
Lоcаtion: Ханты-Мансийский АО
Age: 44
Name: Сергей
Вот Серёга мочит!.. Даже во время ремонта как-то успевает рипать и сканить!.. Представляю какой это жоп, когда вокруг чемоданы на коропках и пыль железобетонная... :lob: Там наверное жона с тёщей за это пилят дополнительно... Достойно безграничного уважения сие действо!..


:benya: :benya: :benya:

Тёща ко мне приходит только по приглашению...Я же суровый парень!


Top
 Profile  
 
 
PostPosted: 23 Jul 2015 
Прокъмитолист
User avatar
Joined: 12 Aug 2007
Posts: 6578
Lоcаtion: Санктъ-Петербуркъ
Age: 51
Name: Олекъ
поправьте ктонить название альбома: Misanthropy > Misantrophy :oops:

_________________
прокъметол - это музыко, от которово есть прок (ы)


Top
 Profile  
 
 
PostPosted: 24 Jul 2015 
Генеральный thrasher
User avatar
Joined: 03 Oct 2008
Posts: 3714
Lоcаtion: Ханты-Мансийский АО
Age: 44
Name: Сергей
поправьте ктонить название альбома: Misanthropy > Misantrophy :oops:


Точно,Олег!Как EAC выдал результат,так я и рипнул.Не обратил внимания...название топика переправил,ну а в лосе уж сами исправите ошибку. :oops:


Top
 Profile  
 
 
PostPosted: 24 Jul 2015 
Труъ
User avatar
Joined: 28 Mar 2013
Posts: 141
Lоcаtion: Россия
Age: 45
Name: Влад
:thanx:


Top
 Profile E-mail  
 
Display posts from previous:  Sort by  
Post new topic Reply to topic  [ 8 posts ] 

All times are UTC + 3 hours


Who is online

Users browsing this forum: No registered users and 2 guests


You cannot post new topics in this forum
You cannot reply to topics in this forum
You cannot edit your posts in this forum
You cannot delete your posts in this forum
You cannot post attachments in this forum

Search for:
Яндекс.Метрика
Powered by phpBB © 2000, 2002, 2005, 2007 phpBB Group