\m/ 80's metal \m/

Информационно-аналитический форум "80 см пыли" (In Search We Trust) "У нас никто никуда не спешит"
Me For You - http://me-4u.com
It is currently 18 Oct 2019

All times are UTC + 3 hours

Spoiler
Chat - temporary registration for foreign users (please leave your application here)







Post new topic Reply to topic  [ 6 posts ] 
Author Message
 
PostPosted: 01 Apr 2015 
Работнечег
User avatar
Joined: 28 Aug 2007
Posts: 6033
Lоcаtion: г. Москва
Age: 30
Name: Дима
Image

Year: 2002
Label: Neat Records
Genre: Heavy Metal
Coutry: UK
Format: Flac + Log + Cue + Covers
Size: 637 Mb

Tracklist:
Disc 1 - Beware of The Dog
1. Hammerhead 03:52
2. Dog Soldiers 03:19
3. Demon 05:51
4. The Inquisitor 04:07
5. Dead Meat 03:24
6. Painted Heroes 05:36
7. Voice from the Grave 03:08
8. Day of the Butcher 03:50
9. In the End 05:44
10. Shoot to Kill 03:59
11. The Changeling 04:21

Disc 2 - Crimes Of Insanity
1. Taste the Hate 04:06
2. Don't Let the Bastards (Grind You Down) 03:15
3. Blood Money 04:44
4. The Machine 03:43
5. School's Out (Alice Cooper cover) 03:14
6. Street Thunder 03:56
7. Hotter than Hell 03:34
8. Judgement Day 03:31
9. Eat the Rich 04:08
10. Smack Attack 03:25
11. Back to the Bullet 03:16

LOG
Exact Audio Copy V0.99 prebeta 5 from 4. May 2009

EAC extraction logfile from 14. March 2015, 14:33

Tysondog / Painted Heroes (Compilation) CD 1

Used drive : PIONEER DVD-RW DVR-221 Adapter: 2 ID: 1

Read mode : Secure
Utilize accurate stream : Yes
Defeat audio cache : Yes
Make use of C2 pointers : No

Read offset correction : 6
Overread into Lead-In and Lead-Out : No
Fill up missing offset samples with silence : Yes
Delete leading and trailing silent blocks : No
Null samples used in CRC calculations : Yes
Used interface : Native Win32 interface for Win NT & 2000

Used output format : User Defined Encoder
Selected bitrate : 32 kBit/s
Quality : High
Add ID3 tag : No
Command line compressor : C:\Program Files\Exact Audio Copy\Flac\flac.exe
Additional command line options : -6 -V %s


TOC of the extracted CD

Track | Start | Length | Start sector | End sector
---------------------------------------------------------
1 | 0:00.00 | 3:52.49 | 0 | 17448
2 | 3:52.49 | 3:19.69 | 17449 | 32442
3 | 7:12.43 | 5:51.55 | 32443 | 58822
4 | 13:04.23 | 4:07.24 | 58823 | 77371
5 | 17:11.47 | 3:24.44 | 77372 | 92715
6 | 20:36.16 | 5:36.64 | 92716 | 117979
7 | 26:13.05 | 3:08.74 | 117980 | 132153
8 | 29:22.04 | 3:50.72 | 132154 | 149475
9 | 33:13.01 | 5:44.27 | 149476 | 175302
10 | 38:57.28 | 3:59.21 | 175303 | 193248
11 | 42:56.49 | 4:21.54 | 193249 | 212877


Range status and errors

Selected range

Filename D:\Музыка\Lossless\Tysondog - Painted Heroes (Compilation)(2002)\CD 1\Tysondog - Painted Heroes (Compilation).wav

Peak level 98.8 %
Range quality 100.0 %
Copy CRC BF0FE987
Copy OK

No errors occurred


AccurateRip summary

Track 1 accurately ripped (confidence 1) [6FDD7436]
Track 2 accurately ripped (confidence 1) [E54A7DF3]
Track 3 accurately ripped (confidence 1) [53DC8A40]
Track 4 accurately ripped (confidence 1) [FE83A5DC]
Track 5 accurately ripped (confidence 1) [D5B9480C]
Track 6 accurately ripped (confidence 1) [F973D09F]
Track 7 accurately ripped (confidence 1) [D915B49A]
Track 8 accurately ripped (confidence 1) [B5A73C88]
Track 9 accurately ripped (confidence 1) [BDBB0383]
Track 10 accurately ripped (confidence 1) [5E8B8443]
Track 11 accurately ripped (confidence 1) [71972E65]

All tracks accurately ripped

End of status report

CUE
REM GENRE "Heavy/Speed Metal"
REM DATE 2002
REM DISCID A30B160B
REM COMMENT "ExactAudioCopy v0.99pb5"
PERFORMER "Tysondog"
TITLE "Painted Heroes (Compilation) CD 1"
FILE "Tysondog - Painted Heroes (Compilation).flac" WAVE
TRACK 01 AUDIO
TITLE "Hammerhead"
PERFORMER "Tysondog"
INDEX 01 00:00:00
TRACK 02 AUDIO
TITLE "Dog Soldiers"
PERFORMER "Tysondog"
INDEX 01 03:52:49
TRACK 03 AUDIO
TITLE "Demon"
PERFORMER "Tysondog"
INDEX 01 07:12:43
TRACK 04 AUDIO
TITLE "The Inquisition"
PERFORMER "Tysondog"
INDEX 01 13:04:23
TRACK 05 AUDIO
TITLE "Dead Meat"
PERFORMER "Tysondog"
INDEX 01 17:11:47
TRACK 06 AUDIO
TITLE "Painted Heroes"
PERFORMER "Tysondog"
INDEX 01 20:36:16
TRACK 07 AUDIO
TITLE "Voice From The Grave"
PERFORMER "Tysondog"
INDEX 01 26:13:05
TRACK 08 AUDIO
TITLE "Day Of The Butcher"
PERFORMER "Tysondog"
INDEX 01 29:22:04
TRACK 09 AUDIO
TITLE "In The End"
PERFORMER "Tysondog"
INDEX 01 33:13:01
TRACK 10 AUDIO
TITLE "Shoot To Kill (Bonus)"
PERFORMER "Tysondog"
INDEX 01 38:57:28
TRACK 11 AUDIO
TITLE "The Changeling (Bonus)"
PERFORMER "Tysondog"
INDEX 01 42:56:49


Yadi

Очень добротная группа! Первый альбом выдержан в более традиционном стиле, второй более скоростной и тяжелый и пожалуй похитовее, так что он мне побольше понравился!
P.S. 20 апреля выходит новый альбом группы Cry Havoc!





Top
 Profile E-mail  
 
 
PostPosted: 02 Apr 2015 
Рарник и трушник
User avatar
Joined: 25 Dec 2009
Posts: 8793
Lоcаtion: Москва
Age: 54
Name: Виталий
Мне тоже нравится! Классика! :thanx:


Top
 Profile  
 
 
PostPosted: 02 Apr 2015 
Доктор энтомологии
User avatar
Joined: 22 Jan 2009
Posts: 9927
Lоcаtion: Даугавпилс
Age: 44
Name: Алексей
Классная банда!


Top
 Profile  
 
 
PostPosted: 02 Apr 2015 
спирт 100%
User avatar
Joined: 22 Sep 2008
Posts: 4474
Age: 48
Name: Саня
Дим,Спасибо! :thanx:


Top
 Profile  
 
 
PostPosted: 02 Apr 2015 
Прокъмитолист
User avatar
Joined: 12 Aug 2007
Posts: 6624
Lоcаtion: Санктъ-Петербуркъ
Age: 52
Name: Олекъ
Димк, спасибо! :thanx: тащу :true:

_________________
прокъметол - это музыко, от которово есть прок (ы)


Top
 Profile  
 
 
PostPosted: 02 Apr 2015 
Рарник и трушник
User avatar
Joined: 25 Dec 2009
Posts: 8793
Lоcаtion: Москва
Age: 54
Name: Виталий
Откровенно винилом шибает, хоть и вычищен. У меня первый альбом где-то на виниле есть, надо сравнить звучок с рипом, что там наулучшайзерили.
Три издания вроде было на цыдах, мастер-тейпа вроде не было. :umnik:


Top
 Profile  
 
Display posts from previous:  Sort by  
Post new topic Reply to topic  [ 6 posts ] 

All times are UTC + 3 hours


Who is online

Users browsing this forum: No registered users and 2 guests


You cannot post new topics in this forum
You cannot reply to topics in this forum
You cannot edit your posts in this forum
You cannot delete your posts in this forum
You cannot post attachments in this forum

Search for:
Яндекс.Метрика
Powered by phpBB © 2000, 2002, 2005, 2007 phpBB Group