\m/ 80's metal \m/

Информационно-аналитический форум "80 см пыли" (In Search We Trust) "У нас никто никуда не спешит"
Me For You - http://me-4u.com
It is currently 17 Sep 2019

All times are UTC + 3 hours

Spoiler
Chat - temporary registration for foreign users (please leave your application here)







Post new topic Reply to topic  [ 8 posts ] 
Author Message
 
PostPosted: 19 Mar 2015 
Генеральный thrasher
User avatar
Joined: 03 Oct 2008
Posts: 3730
Lоcаtion: Ханты-Мансийский АО
Age: 44
Name: Сергей
Image

Year:2011
Style:Thrash Metal
Country:Germany
Audio:Flac+Cue+Log+Scans
Size:138Mb
Source:my CD
Label:Self-Released

Tracklist:
01. Dread 03:35
02. Reflections Of Autumn 04:10
03. Disparity Of Views 03:51
04. Act Of Conrition 03:17
05. Invisible Bracelets 03:28
06. Protect Yourself 04:18
07. Heretic 05:25
08. A Part Of Hell 03:34
09. Dread (Bonus track) 03:35
10. Disparity Of Views (Bonus track) 03:51

"Cue"
REM GENRE "Thrash Metal"
REM DATE 2011
REM DISCID 74093E0A
REM COMMENT "ExactAudioCopy v0.99pb5"
PERFORMER "Toxin"
TITLE "Disparity Of Views"
FILE "Toxin - Disparity Of Views.flac" WAVE
TRACK 01 AUDIO
TITLE "Dread"
PERFORMER "Toxin"
INDEX 01 00:00:00
TRACK 02 AUDIO
TITLE "Reflections of Autumn"
PERFORMER "Toxin"
INDEX 00 03:35:73
INDEX 01 03:37:73
TRACK 03 AUDIO
TITLE "Disparity of Views"
PERFORMER "Toxin"
INDEX 00 07:48:03
INDEX 01 07:50:03
TRACK 04 AUDIO
TITLE "Act of Contrition"
PERFORMER "Toxin"
INDEX 00 11:41:14
INDEX 01 11:43:14
TRACK 05 AUDIO
TITLE "Invisible Bracelets"
PERFORMER "Toxin"
INDEX 00 15:00:15
INDEX 01 15:02:15
TRACK 06 AUDIO
TITLE "Protect Yourself"
PERFORMER "Toxin"
INDEX 00 18:30:26
INDEX 01 18:32:26
TRACK 07 AUDIO
TITLE "Heretic"
PERFORMER "Toxin"
INDEX 00 22:50:73
INDEX 01 22:52:73
TRACK 08 AUDIO
TITLE "A Part of Hell"
PERFORMER "Toxin"
INDEX 00 28:18:49
INDEX 01 28:20:49
TRACK 09 AUDIO
TITLE "Dread (bonus track)"
PERFORMER "Toxin"
INDEX 00 31:55:04
INDEX 01 31:57:04
TRACK 10 AUDIO
TITLE "Disparity of Views (bonus track)"
PERFORMER "Toxin"
INDEX 00 35:32:27
INDEX 01 35:34:27

"Log"
Exact Audio Copy V0.99 prebeta 5 from 4. May 2009

Отчёт EAC об извлечении, выполненном 19. марта 2015, 14:13

Toxin / Disparity Of Views

Дисковод: MATSHITADVD-RAM UJ8A0AS Adapter: 0 ID: 1

Режим чтения : Достоверность
Использование точного потока : Да
Отключение кэша аудио : Да
Использование указателей C2 : Нет

Коррекция смещения при чтении : 102
Способность читать области Lead-in и Lead-out : Нет
Заполнение пропущенных сэмплов тишиной : Да
Удаление блоков с тишиной в начале и конце : Нет
При вычислениях CRC использовались нулевые сэмплы : Да
Интерфейс : Встроенный Win32-интерфейс для Win NT/2000

Выходной формат : Пользовательский кодировщик
Выбранный битрейт : 1024 kBit/s
Качество : Высокий
Добавление ID3-тэга : Нет
Утилита сжатия : C:\Program Files\Exact Audio Copy\FLAC\FLAC.EXE
Дополнительные параметры : -6 -V -T "ARTIST=%a" -T "TITLE=%t" -T "ALBUM=%g" -T "DATE=%y" -T "TRACKNUMBER=%n" -T "GENRE=%m" -T "COMMENT=%e" %s -o %d


TOC извлечённого CD

Трек | Старт | Длительность | Начальный сектор | Конечный сектор
---------------------------------------------------------------------
1 | 0:00.00 | 3:37.73 | 0 | 16347
2 | 3:37.73 | 4:12.05 | 16348 | 35252
3 | 7:50.03 | 3:53.11 | 35253 | 52738
4 | 11:43.14 | 3:19.01 | 52739 | 67664
5 | 15:02.15 | 3:30.11 | 67665 | 83425
6 | 18:32.26 | 4:20.47 | 83426 | 102972
7 | 22:52.73 | 5:27.51 | 102973 | 127548
8 | 28:20.49 | 3:36.30 | 127549 | 143778
9 | 31:57.04 | 3:37.23 | 143779 | 160076
10 | 35:34.27 | 3:51.70 | 160077 | 177471


Характеристики диапазона извлечения и сообщения об ошибках

Выбранный диапазон

Имя файла C:\Users\эксперт\Music\Toxin - Disparity Of Views.wav

Пиковый уровень 100.0 %
Качество диапазона 99.9 %
CRC копии 9CFEFA85
Копирование... OK

Ошибок не произошло


AccurateRip: сводка

Трек 1 точность не определена (достоверность 1) [1A99DA00], AccurateRip вернул [9B6BB89D]
Трек 2 точность не определена (достоверность 1) [86A6B000], AccurateRip вернул [11AA4213]
Трек 3 точность не определена (достоверность 1) [5DCE0800], AccurateRip вернул [16150980]
Трек 4 точность не определена (достоверность 1) [F1975600], AccurateRip вернул [E4D34091]
Трек 5 точность не определена (достоверность 1) [D1D12400], AccurateRip вернул [612D732D]
Трек 6 точность не определена (достоверность 1) [4EBF0600], AccurateRip вернул [5347CAE1]
Трек 7 точность не определена (достоверность 1) [DA3F5200], AccurateRip вернул [9C783D74]
Трек 8 точность не определена (достоверность 1) [7DFF8C00], AccurateRip вернул [D946D1F3]
Трек 9 точность не определена (достоверность 1) [E106B000], AccurateRip вернул [CC47BE64]
Трек 10 точность не определена (достоверность 1) [9ABB4200], AccurateRip вернул [294E1C87]

Ни один трек не прошёл проверки на точность
В вашей базе может быть иной вариант штамповки диска

Конец отчёта


Disparity Of Views


Top
 Profile  
 
 
PostPosted: 19 Mar 2015 
\m/ 80 см сала \m/
User avatar
Joined: 12 Mar 2012
Posts: 2590
Age: 26
Name: Nick
:shok: :true:

_________________
1990 AUROPHON BRAINSTORM (Germany) - lossless
1994 MAUSOLEUM CLASSIX (Belgium-Germany) - lossless
1998 VA - GRIM HARVEST - Complete Metal Massacre Volumes I-XII


Top
 Profile  
 
 
PostPosted: 19 Mar 2015 
Прокъмитолист
User avatar
Joined: 12 Aug 2007
Posts: 6600
Lоcаtion: Санктъ-Петербуркъ
Age: 51
Name: Олекъ
спасибо! :thanx: :true:

_________________
прокъметол - это музыко, от которово есть прок (ы)


Top
 Profile  
 
 
PostPosted: 19 Mar 2015 
Доктор энтомологии
User avatar
Joined: 22 Jan 2009
Posts: 9878
Lоcаtion: Даугавпилс
Age: 44
Name: Алексей
наш размерчик :thanx: :thanx:


Top
 Profile  
 
 
PostPosted: 19 Mar 2015 
консэрваторъ
User avatar
Joined: 11 Aug 2007
Posts: 17211
Lоcаtion: Псков
Age: 45
Name: Сергей
glloomerxe wrote:
9. Detroit Rock City (Kiss cover)

viewtopic.php?p=221532#p221532
thorbeorn wrote:
01. Dread 03:35
02. Reflections Of Autumn 04:10
03. Disparity Of Views 03:51
04. Act Of Conrition 03:17
05. Invisible Bracelets 03:28
06. Protect Yourself 04:18
07. Heretic 05:25
08. A Part Of Hell 03:34
09. Dread (Bonus track) 03:35
10. Disparity Of Views (Bonus track) 03:51

:vic:
Может Dread (Bonus track) это и есть Детройт?.. А на циде очепятка?..

_________________
THRASH 'EM ALL


Top
 Profile E-mail  
 
 
PostPosted: 20 Mar 2015 
Генеральный thrasher
User avatar
Joined: 03 Oct 2008
Posts: 3730
Lоcаtion: Ханты-Мансийский АО
Age: 44
Name: Сергей

:vic:
Может Dread (Bonus track) это и есть Детройт?.. А на циде очепятка?..


Нет не опечатка.Серёга,ты не ознакомился с альбомом?


Top
 Profile  
 
 
PostPosted: 20 Mar 2015 
консэрваторъ
User avatar
Joined: 11 Aug 2007
Posts: 17211
Lоcаtion: Псков
Age: 45
Name: Сергей
Пока нет...

_________________
THRASH 'EM ALL


Top
 Profile E-mail  
 
 
PostPosted: 12 May 2015 
ТрэшЭрос
User avatar
Joined: 18 Jul 2011
Posts: 2304
Lоcаtion: Гулькевичи
Age: 44
Name: Александр
:thanx:

_________________
Thrash no trash!!!


Top
 Profile E-mail  
 
Display posts from previous:  Sort by  
Post new topic Reply to topic  [ 8 posts ] 

All times are UTC + 3 hours


Who is online

Users browsing this forum: No registered users and 1 guest


You cannot post new topics in this forum
You cannot reply to topics in this forum
You cannot edit your posts in this forum
You cannot delete your posts in this forum
You cannot post attachments in this forum

Search for:
Яндекс.Метрика
Powered by phpBB © 2000, 2002, 2005, 2007 phpBB Group