\m/ 80's metal \m/

Информационно-аналитический форум "80 см пыли" (In Search We Trust) "У нас никто никуда не спешит"
Me For You - http://me-4u.com
It is currently 18 Jul 2019

All times are UTC + 3 hours

Spoiler
Chat - temporary registration for foreign users (please leave your application here)







Post new topic Reply to topic  [ 6 posts ] 
Author Message
 
PostPosted: 16 Mar 2015 
Генеральный thrasher
User avatar
Joined: 03 Oct 2008
Posts: 3714
Lоcаtion: Ханты-Мансийский АО
Age: 44
Name: Сергей
Image

Year:1991
Style:Thrash Metal/Crossover
Country:Sweden
Audio:Flac+Cue+Log+Scans
Size:312Mb
Source:my CD
Label:Black Mark Production
Catalog ID:BMCD 16

Line-Up:
Dan Hojas - bass
Magnus Forsberg - drums
Steven Neuman - guitars
Mike Toza - guitars,vocals

Tracklist:
01. Borka Intro 01:00
02. Born Bizarre 02:47
03. My World Is Different 02:51
04. Rise Of Prejudice 03:26
05. Everything Is Floating 03:02
06. Safe Murder Of Emotions 03:04
07. Angst 01:35
08. Decide (take a stand) 01:22
09. Angel In A Winterpile 03:13
10. Beautiful Views 03:52
11. Landslide Of Losers 02:40
12. Down My Lungs 04:23
13. Pick An Image (Make Sure It Sells) 01:57
14. Herr Ober 00:23
15. Tiny Little Skeleton 02:25
16. Disgraceland 02:04

"Cue"
REM GENRE "Thrash Metal/Crossover"
REM DATE 1991
REM DISCID B9098F10
REM COMMENT "ExactAudioCopy v0.99pb5"
PERFORMER "Tribulation"
TITLE "Clown Of Thorns"
FILE "Tribulation - Clown Of Thorns.flac" WAVE
TRACK 01 AUDIO
TITLE "Borka Intro"
PERFORMER "Tribulation"
INDEX 01 00:00:00
TRACK 02 AUDIO
TITLE "Born Bizarre"
PERFORMER "Tribulation"
INDEX 01 01:00:07
TRACK 03 AUDIO
TITLE "My World Is Different"
PERFORMER "Tribulation"
INDEX 00 03:47:52
INDEX 01 03:50:57
TRACK 04 AUDIO
TITLE "Rise Of Prejudice"
PERFORMER "Tribulation"
INDEX 00 06:42:10
INDEX 01 06:46:37
TRACK 05 AUDIO
TITLE "Everything's Floating"
PERFORMER "Tribulation"
INDEX 00 10:13:17
INDEX 01 10:15:62
TRACK 06 AUDIO
TITLE "Safe Murder Of Emotions"
PERFORMER "Tribulation"
INDEX 00 13:15:72
INDEX 01 13:18:02
TRACK 07 AUDIO
TITLE "Angst"
PERFORMER "Tribulation"
INDEX 00 16:22:60
INDEX 01 16:24:50
TRACK 08 AUDIO
TITLE "Decide (Take A Stand)"
PERFORMER "Tribulation"
INDEX 00 18:00:47
INDEX 01 18:02:35
TRACK 09 AUDIO
TITLE "Angel In A Winterpile"
PERFORMER "Tribulation"
INDEX 00 19:24:65
INDEX 01 19:28:12
TRACK 10 AUDIO
TITLE "Beautiful Views"
PERFORMER "Tribulation"
INDEX 00 22:41:25
INDEX 01 22:43:62
TRACK 11 AUDIO
TITLE "Landslide Of Losers"
PERFORMER "Tribulation"
INDEX 00 26:36:32
INDEX 01 26:38:17
TRACK 12 AUDIO
TITLE "Down My Lungs"
PERFORMER "Tribulation"
INDEX 00 29:19:05
INDEX 01 29:21:57
TRACK 13 AUDIO
TITLE "Pick An Image (Make Sure It Sells)"
PERFORMER "Tribulation"
INDEX 00 33:45:42
INDEX 01 33:48:27
TRACK 14 AUDIO
TITLE "Herr Ober"
PERFORMER "Tribulation"
INDEX 00 35:46:00
INDEX 01 35:47:65
TRACK 15 AUDIO
TITLE "Tiny Little Skeleton"
PERFORMER "Tribulation"
INDEX 00 36:11:50
INDEX 01 36:15:27
TRACK 16 AUDIO
TITLE "Disgraceland"
PERFORMER "Tribulation"
INDEX 00 38:40:67
INDEX 01 38:43:37

"Log"
Exact Audio Copy V0.99 prebeta 5 from 4. May 2009

Отчёт EAC об извлечении, выполненном 16. марта 2015, 18:34

Tribulation / Clown Of Thorns

Дисковод: MATSHITADVD-RAM UJ8A0AS Adapter: 0 ID: 1

Режим чтения : Достоверность
Использование точного потока : Да
Отключение кэша аудио : Да
Использование указателей C2 : Нет

Коррекция смещения при чтении : 102
Способность читать области Lead-in и Lead-out : Нет
Заполнение пропущенных сэмплов тишиной : Да
Удаление блоков с тишиной в начале и конце : Нет
При вычислениях CRC использовались нулевые сэмплы : Да
Интерфейс : Встроенный Win32-интерфейс для Win NT/2000

Выходной формат : Пользовательский кодировщик
Выбранный битрейт : 1024 kBit/s
Качество : Высокий
Добавление ID3-тэга : Нет
Утилита сжатия : C:\Program Files\Exact Audio Copy\FLAC\FLAC.EXE
Дополнительные параметры : -6 -V -T "ARTIST=%a" -T "TITLE=%t" -T "ALBUM=%g" -T "DATE=%y" -T "TRACKNUMBER=%n" -T "GENRE=%m" -T "COMMENT=%e" %s -o %d


TOC извлечённого CD

Трек | Старт | Длительность | Начальный сектор | Конечный сектор
---------------------------------------------------------------------
1 | 0:00.00 | 1:00.07 | 0 | 4506
2 | 1:00.07 | 2:50.50 | 4507 | 17306
3 | 3:50.57 | 2:55.55 | 17307 | 30486
4 | 6:46.37 | 3:29.25 | 30487 | 46186
5 | 10:15.62 | 3:02.15 | 46187 | 59851
6 | 13:18.02 | 3:06.48 | 59852 | 73849
7 | 16:24.50 | 1:37.60 | 73850 | 81184
8 | 18:02.35 | 1:25.52 | 81185 | 87611
9 | 19:28.12 | 3:15.50 | 87612 | 102286
10 | 22:43.62 | 3:54.30 | 102287 | 119866
11 | 26:38.17 | 2:43.40 | 119867 | 132131
12 | 29:21.57 | 4:26.45 | 132132 | 152126
13 | 33:48.27 | 1:59.38 | 152127 | 161089
14 | 35:47.65 | 0:27.37 | 161090 | 163151
15 | 36:15.27 | 2:28.10 | 163152 | 174261
16 | 38:43.37 | 2:04.10 | 174262 | 183571


Характеристики диапазона извлечения и сообщения об ошибках

Выбранный диапазон

Имя файла C:\Users\эксперт\Music\Tribulation - Clown Of Thorns.wav

Пиковый уровень 97.2 %
Качество диапазона 100.0 %
CRC копии 0BDDC3DF
Копирование... OK

Ошибок не произошло


AccurateRip: сводка

Трек 1 точность не определена (достоверность 2) [34E4B003], AccurateRip вернул [E16DEFFD]
Трек 2 точность не определена (достоверность 2) [E232E70F], AccurateRip вернул [D5FCCD68]
Трек 3 точность не определена (достоверность 2) [5E2C2879], AccurateRip вернул [3AD3552C]
Трек 4 точность не определена (достоверность 2) [F4AACF6C], AccurateRip вернул [2458A3FF]
Трек 5 точность не определена (достоверность 2) [74B5312C], AccurateRip вернул [59D01BA7]
Трек 6 точность не определена (достоверность 2) [346A7D21], AccurateRip вернул [EB0E2601]
Трек 7 точность не определена (достоверность 2) [62CE7A6A], AccurateRip вернул [BD556FD3]
Трек 8 точность не определена (достоверность 2) [D16D595D], AccurateRip вернул [2BC6FFB5]
Трек 9 точность не определена (достоверность 2) [5B4C3F50], AccurateRip вернул [7B008EAE]
Трек 10 точность не определена (достоверность 2) [4FAE7601], AccurateRip вернул [68A5CED4]
Трек 11 точность не определена (достоверность 2) [3D3A9532], AccurateRip вернул [F555507F]
Трек 12 точность не определена (достоверность 2) [6F7CE03B], AccurateRip вернул [0CE78CF6]
Трек 13 точность не определена (достоверность 2) [DDD8FF9D], AccurateRip вернул [1582CA3B]
Трек 14 точность не определена (достоверность 2) [291F845C], AccurateRip вернул [7FA80935]
Трек 15 точность не определена (достоверность 2) [669A6E01], AccurateRip вернул [613C5E5B]
Трек 16 точность не определена (достоверность 2) [D7B562D5], AccurateRip вернул [2375ED42]

Ни один трек не прошёл проверки на точность
В вашей базе может быть иной вариант штамповки диска

Конец отчёта


Clown Of Thorns


Last edited by thorbeorn on 16 Mar 2015, edited 1 time in total.

Top
 Profile  
 
 
PostPosted: 16 Mar 2015 
DarkSage
User avatar
Joined: 24 Sep 2009
Posts: 1078
Lоcаtion: Moscow
Name: Оксана
Спасибо, Серёж)) :dance: :meloman:

_________________
Image,Image


Top
 Profile E-mail  
 
 
PostPosted: 16 Mar 2015 
Генеральный thrasher
User avatar
Joined: 03 Oct 2008
Posts: 3714
Lоcаtion: Ханты-Мансийский АО
Age: 44
Name: Сергей
Пожалуйста,Оксан!Группа весьма своеобразная. :benya:


Top
 Profile  
 
 
PostPosted: 16 Mar 2015 
Навечно изгнанный
User avatar
Joined: 04 May 2009
Posts: 500
Lоcаtion: Загорск (Сергиев Посад)
Age: 48
Name: Евгений
Шведов надо забирать. Спасибо! :thanx:

_________________
"$? -Это не деньги! Рубли давайте!"


Top
 Profile  
 
 
PostPosted: 17 Mar 2015 
Прокъмитолист
User avatar
Joined: 12 Aug 2007
Posts: 6574
Lоcаtion: Санктъ-Петербуркъ
Age: 51
Name: Олекъ
:thanx:

_________________
прокъметол - это музыко, от которово есть прок (ы)


Top
 Profile  
 
 
PostPosted: 12 May 2015 
ТрэшЭрос
User avatar
Joined: 18 Jul 2011
Posts: 2303
Lоcаtion: Гулькевичи
Age: 44
Name: Александр
:dance: :thanx:

_________________
Thrash no trash!!!


Top
 Profile E-mail  
 
Display posts from previous:  Sort by  
Post new topic Reply to topic  [ 6 posts ] 

All times are UTC + 3 hours


Who is online

Users browsing this forum: No registered users and 1 guest


You cannot post new topics in this forum
You cannot reply to topics in this forum
You cannot edit your posts in this forum
You cannot delete your posts in this forum
You cannot post attachments in this forum

Search for:
Яндекс.Метрика
Powered by phpBB © 2000, 2002, 2005, 2007 phpBB Group