\m/ 80's metal \m/

Информационно-аналитический форум "80 см пыли" (In Search We Trust) "У нас никто никуда не спешит"
Me For You - http://me-4u.com
It is currently 20 Jul 2019

All times are UTC + 3 hours

Spoiler
Chat - temporary registration for foreign users (please leave your application here)







Post new topic Reply to topic  [ 5 posts ] 
Author Message
 
PostPosted: 21 Feb 2015 
Работнечег
User avatar
Joined: 28 Aug 2007
Posts: 5919
Lоcаtion: г. Москва
Age: 30
Name: Дима
Image

Year: 2012
Label: Rock Saviour Records
Genre: Hard Rock
Coutry: Canada
Format: Flac + Log + Cue + Covers
Size: 357 Mb

Tracklist:
1. Collider 01:35
2. Der Thunderstryker 04:35
3. Hey with You 03:14
4. Metal Warriors 03:49
5. High Times 03:57
6. Rock and Roll (Led Zeppelin Cover) 03:52
7. Flight to the Stars / Warriors of the Universe 04:15
8. Megaton Man 03:05
9. Gladiator's Arena 03:20
10. Lady 03:22
11. That Girl Is Poison 03:43
12. Across the Sky 03:41
13. Now Comes the Storm (Original Version) (with Thunder on the Tundra Riff) 02:54
14. We Came Here 03:44
15. Ceremony of the Godz 01:29

LOG
Exact Audio Copy V0.99 prebeta 5 from 4. May 2009

EAC extraction logfile from 16. February 2015, 23:54

Thor / Thunderstryke (Compilation)

Used drive : PIONEER DVD-RW DVR-221 Adapter: 2 ID: 1

Read mode : Secure
Utilize accurate stream : Yes
Defeat audio cache : Yes
Make use of C2 pointers : No

Read offset correction : 6
Overread into Lead-In and Lead-Out : No
Fill up missing offset samples with silence : Yes
Delete leading and trailing silent blocks : No
Null samples used in CRC calculations : Yes
Used interface : Native Win32 interface for Win NT & 2000

Used output format : User Defined Encoder
Selected bitrate : 32 kBit/s
Quality : High
Add ID3 tag : No
Command line compressor : C:\Program Files\Exact Audio Copy\Flac\flac.exe
Additional command line options : -6 -V %s


TOC of the extracted CD

Track | Start | Length | Start sector | End sector
---------------------------------------------------------
1 | 0:00.00 | 1:34.73 | 0 | 7122
2 | 1:34.73 | 4:34.74 | 7123 | 27746
3 | 6:09.72 | 3:14.30 | 27747 | 42326
4 | 9:24.27 | 3:49.03 | 42327 | 59504
5 | 13:13.30 | 3:57.57 | 59505 | 77336
6 | 17:11.12 | 3:52.55 | 77337 | 94791
7 | 21:03.67 | 4:15.37 | 94792 | 113953
8 | 25:19.29 | 3:05.50 | 113954 | 127878
9 | 28:25.04 | 3:20.53 | 127879 | 142931
10 | 31:45.57 | 3:22.11 | 142932 | 158092
11 | 35:07.68 | 3:43.54 | 158093 | 174871
12 | 38:51.47 | 3:41.27 | 174872 | 191473
13 | 42:32.74 | 2:54.05 | 191474 | 204528
14 | 45:27.04 | 3:44.18 | 204529 | 221346
15 | 49:11.22 | 1:29.06 | 221347 | 228027


Range status and errors

Selected range

Filename D:\Музыка\Lossless\Thor - Thunderstryke (Compilation)(2012)\Thor - Thunderstryke (Compilation).wav

Peak level 100.0 %
Range quality 99.9 %
Copy CRC 18B7D782
Copy OK

No errors occurred


AccurateRip summary

Track 1 not present in database
Track 2 not present in database
Track 3 not present in database
Track 4 not present in database
Track 5 not present in database
Track 6 not present in database
Track 7 not present in database
Track 8 not present in database
Track 9 not present in database
Track 10 not present in database
Track 11 not present in database
Track 12 not present in database
Track 13 not present in database
Track 14 not present in database
Track 15 not present in database

None of the tracks are present in the AccurateRip database

End of status report

CUE
REM GENRE "Heavy Metal"
REM DATE 2012
REM DISCID CE0BE00F
REM COMMENT "ExactAudioCopy v0.99pb5"
PERFORMER "Thor"
TITLE "Thunderstryke (Compilation)"
FILE "Thor - Thunderstryke (Compilation).flac" WAVE
TRACK 01 AUDIO
TITLE "Collider"
PERFORMER "Thor"
FLAGS DCP
INDEX 01 00:00:00
TRACK 02 AUDIO
TITLE "Der Thunderstryker"
PERFORMER "Thor"
FLAGS DCP
INDEX 00 01:32:73
INDEX 01 01:34:73
TRACK 03 AUDIO
TITLE "Hey With You"
PERFORMER "Thor"
FLAGS DCP
INDEX 00 06:07:72
INDEX 01 06:09:72
TRACK 04 AUDIO
TITLE "Metal Warriors"
PERFORMER "Thor"
FLAGS DCP
INDEX 00 09:22:27
INDEX 01 09:24:27
TRACK 05 AUDIO
TITLE "High Times"
PERFORMER "Thor"
FLAGS DCP
INDEX 00 13:11:30
INDEX 01 13:13:30
INDEX 02 13:14:01
TRACK 06 AUDIO
TITLE "Rock And Roll"
PERFORMER "Thor"
FLAGS DCP
INDEX 00 17:09:12
INDEX 01 17:11:12
INDEX 02 17:11:72
TRACK 07 AUDIO
TITLE "Flight To The Stars/Warriors Of The Universe"
PERFORMER "Thor"
FLAGS DCP
INDEX 00 21:01:67
INDEX 01 21:03:67
TRACK 08 AUDIO
TITLE "Megaton Man"
PERFORMER "Thor"
FLAGS DCP
INDEX 00 25:17:29
INDEX 01 25:19:29
TRACK 09 AUDIO
TITLE "Gladiator's Arena"
PERFORMER "Thor"
FLAGS DCP
INDEX 00 28:23:04
INDEX 01 28:25:04
TRACK 10 AUDIO
TITLE "Lady"
PERFORMER "Thor"
FLAGS DCP
INDEX 00 31:43:57
INDEX 01 31:45:57
TRACK 11 AUDIO
TITLE "That Girl Is Poison"
PERFORMER "Thor"
FLAGS DCP
INDEX 00 35:05:68
INDEX 01 35:07:68
TRACK 12 AUDIO
TITLE "Across The Sky"
PERFORMER "Thor"
FLAGS DCP
INDEX 00 38:49:47
INDEX 01 38:51:47
TRACK 13 AUDIO
TITLE "Now Comes The Storm (Original Version)"
PERFORMER "Thor"
FLAGS DCP
INDEX 00 42:30:74
INDEX 01 42:32:74
TRACK 14 AUDIO
TITLE "We Came Here"
PERFORMER "Thor"
FLAGS DCP
INDEX 00 45:25:04
INDEX 01 45:27:04
TRACK 15 AUDIO
TITLE "Ceremony Of The Godz"
PERFORMER "Thor"
FLAGS DCP
INDEX 00 49:09:22
INDEX 01 49:11:22


Yadi

Перезаписанные версии песенок 70-80х годов, которые не были до этого нигде изданы, насколько я понял! Из плюсов то, что в отличии от альбомов Тора начиная с 2000-х года здесь не привнесена никакая модерновость. Из минусов здесь немного по-настоящему интересных и запоминающихся песен! Выделю Der Thunderstryker, Metal Warriors, Flight to the Stars / Warriors of the Universe, Now Comes the Storm.


Top
 Profile E-mail  
 
 
PostPosted: 21 Feb 2015 
Персональный статус
User avatar
Joined: 27 Apr 2008
Posts: 229
Lоcаtion: Kovrov-City
Age: 40
Name: Константин
спасибо, дружище!!

_________________
Riding high on the black wings of death
Like a nightmare that's choking your breath


Top
 Profile  
 
 
PostPosted: 21 Feb 2015 
Генеральный thrasher
User avatar
Joined: 03 Oct 2008
Posts: 3714
Lоcаtion: Ханты-Мансийский АО
Age: 44
Name: Сергей
Спасибо,Димка!Заберу.


Top
 Profile  
 
 
PostPosted: 21 Feb 2015 
Я набрал 1000 сообщений!
Joined: 24 Oct 2009
Posts: 2233
Lоcаtion: Оренбург
Age: 55
Name: Юра
Дим Спасибо! :thanx:

_________________
:dash: I am happy!


Top
 Profile E-mail  
 
 
PostPosted: 21 Feb 2015 
спирт 100%
User avatar
Joined: 22 Sep 2008
Posts: 4443
Age: 47
Name: Саня
Дим, Спасибо! :true:


Top
 Profile  
 
Display posts from previous:  Sort by  
Post new topic Reply to topic  [ 5 posts ] 

All times are UTC + 3 hours


Who is online

Users browsing this forum: No registered users and 3 guests


You cannot post new topics in this forum
You cannot reply to topics in this forum
You cannot edit your posts in this forum
You cannot delete your posts in this forum
You cannot post attachments in this forum

Search for:
Яндекс.Метрика
Powered by phpBB © 2000, 2002, 2005, 2007 phpBB Group