\m/ 80's metal \m/

Информационно-аналитический форум "80 см пыли" (In Search We Trust) "У нас никто никуда не спешит"
Me For You - http://me-4u.com
It is currently 21 Oct 2019

All times are UTC + 3 hours

Spoiler
Chat - temporary registration for foreign users (please leave your application here)







Post new topic Reply to topic  [ 4 posts ] 
Author Message
 
PostPosted: 15 Feb 2015 
Я набрал 1000 сообщений!
Joined: 21 Nov 2009
Posts: 1415
Lоcаtion: praga
Age: 49
Name: Сергей
Tarot's Myst - Odyssey.Проект талантливого ех-гитариста,композитора,и тд . группы Stormwitch Гарольда Спенглера(Lee Tarot)(rip).Отличный альбом,более напоминающий Stormwitch,чем группа после его ухода и до сего времени.Вокалист пел в Stranger.

Image
01. Blood on the Horizon 03:58
02. Troja 03:30
03. The Giant's Eye 04:57
04. Lord of the Winds 03:19
05. The Creature Within 05:04
06. Kingdom of the Shadows 05:41
07. Siren's Song 04:22
08. Jaws of Deep 03:53
09. Come Hell or High Water 04:00
10. Flame in the Maze 04:38
11. The One to Bend the Bow 04:16
12. Flesh and Blood 03:33
13. Odyssey 06:29
Uwe Hormann Guitars, Keyboards
Jens Hormann Bass
Dieter Bernert Drums
Thomas Bloch Vocals
Image


Top
 Profile E-mail  
 
 
PostPosted: 15 Feb 2015 
Хиппей (support team)
User avatar
Joined: 30 Jul 2007
Posts: 114979
Lоcаtion: Киев (Kyiv, UA)
Age: 46
Name: Andrey
:thanx:

mirror: Narod l M-Cloud

log
Exact Audio Copy V0.99 prebeta 5 from 4. May 2009

EAC extraction logfile from 20. February 2010, 20:24

Tarot's Myst / Odyssey

Used drive : ATAPI DVD A DH16A6S Adapter: 2 ID: 2

Read mode : Secure
Utilize accurate stream : Yes
Defeat audio cache : Yes
Make use of C2 pointers : No

Read offset correction : 6
Overread into Lead-In and Lead-Out : No
Fill up missing offset samples with silence : Yes
Delete leading and trailing silent blocks : No
Null samples used in CRC calculations : Yes
Used interface : Native Win32 interface for Win NT & 2000

Used output format : Internal WAV Routines
Sample format : 44.100 Hz; 16 Bit; Stereo


TOC of the extracted CD

Track | Start | Length | Start sector | End sector
---------------------------------------------------------
1 | 0:00.00 | 3:57.41 | 0 | 17815
2 | 3:57.41 | 3:29.40 | 17816 | 33530
3 | 7:27.06 | 4:57.06 | 33531 | 55811
4 | 12:24.12 | 3:18.45 | 55812 | 70706
5 | 15:42.57 | 5:04.31 | 70707 | 93537
6 | 20:47.13 | 5:40.42 | 93538 | 119079
7 | 26:27.55 | 4:22.17 | 119080 | 138746
8 | 30:49.72 | 3:52.58 | 138747 | 156204
9 | 34:42.55 | 3:59.59 | 156205 | 174188
10 | 38:42.39 | 4:38.29 | 174189 | 195067
11 | 43:20.68 | 4:16.23 | 195068 | 214290
12 | 47:37.16 | 3:33.26 | 214291 | 230291
13 | 51:10.42 | 6:29.29 | 230292 | 259495


Range status and errors

Selected range

Filename D:\MyRip\TAROT'S MYST [1999] [CD] Odyssey [EAC-WV] by maniac [MeTaLMaDNeSS TeaM]\Tarot's Myst - Odyssey.wav

Peak level 93.3 %
Range quality 100.0 %
Test CRC 7A749260
Copy CRC 7A749260
Copy OK

No errors occurred


AccurateRip summary

Track 1 accurately ripped (confidence 1) [598E9C67]
Track 2 accurately ripped (confidence 1) [A27D65F0]
Track 3 accurately ripped (confidence 1) [8D544BDF]
Track 4 accurately ripped (confidence 1) [83F33F34]
Track 5 accurately ripped (confidence 1) [97FEA83F]
Track 6 accurately ripped (confidence 1) [9D512BEE]
Track 7 accurately ripped (confidence 1) [5BC79A8E]
Track 8 accurately ripped (confidence 1) [12256657]
Track 9 accurately ripped (confidence 1) [87EEA012]
Track 10 accurately ripped (confidence 1) [7B7FA76C]
Track 11 accurately ripped (confidence 1) [3DBFAD79]
Track 12 accurately ripped (confidence 1) [1258BB28]
Track 13 accurately ripped (confidence 1) [88010F65]

All tracks accurately ripped

End of status report

cue
REM GENRE "Heavy Metal"
REM DATE 1999
REM DISCID C00D830D
REM COMMENT "ExactAudioCopy v0.99pb5"
PERFORMER "Tarot's Myst"
TITLE "Odyssey"
FILE "Tarot's Myst - Odyssey.wv" WAVE
TRACK 01 AUDIO
TITLE "Blood on the Horizon"
PERFORMER "Tarot's Myst"
FLAGS DCP
INDEX 01 00:00:00
TRACK 02 AUDIO
TITLE "Troja"
PERFORMER "Tarot's Myst"
FLAGS DCP
INDEX 00 03:56:71
INDEX 01 03:57:41
TRACK 03 AUDIO
TITLE "The Giant's Eye"
PERFORMER "Tarot's Myst"
FLAGS DCP
INDEX 00 07:25:36
INDEX 01 07:27:06
TRACK 04 AUDIO
TITLE "Lord of the Winds"
PERFORMER "Tarot's Myst"
FLAGS DCP
INDEX 00 12:22:42
INDEX 01 12:24:12
TRACK 05 AUDIO
TITLE "The Creature Within"
PERFORMER "Tarot's Myst"
FLAGS DCP
INDEX 00 15:41:12
INDEX 01 15:42:57
TRACK 06 AUDIO
TITLE "Kingdom of the Shadows"
PERFORMER "Tarot's Myst"
FLAGS DCP
INDEX 00 20:45:43
INDEX 01 20:47:13
TRACK 07 AUDIO
TITLE "Siren's Song"
PERFORMER "Tarot's Myst"
FLAGS DCP
INDEX 00 26:26:10
INDEX 01 26:27:55
TRACK 08 AUDIO
TITLE "Jaws of Deep"
PERFORMER "Tarot's Myst"
FLAGS DCP
INDEX 00 30:48:27
INDEX 01 30:49:72
TRACK 09 AUDIO
TITLE "Come Hell or High Water"
PERFORMER "Tarot's Myst"
FLAGS DCP
INDEX 00 34:41:10
INDEX 01 34:42:55
TRACK 10 AUDIO
TITLE "Flame in the Maze"
PERFORMER "Tarot's Myst"
FLAGS DCP
INDEX 00 38:40:69
INDEX 01 38:42:39
TRACK 11 AUDIO
TITLE "The One to Bend the Bow"
PERFORMER "Tarot's Myst"
FLAGS DCP
INDEX 00 43:20:23
INDEX 01 43:20:68
TRACK 12 AUDIO
TITLE "Flesh and Blood"
PERFORMER "Tarot's Myst"
FLAGS DCP
INDEX 00 47:35:46
INDEX 01 47:37:16
TRACK 13 AUDIO
TITLE "Odyssey"
PERFORMER "Tarot's Myst"
FLAGS DCP
INDEX 00 51:08:72
INDEX 01 51:10:42


scans
Image

Image

Image

Image

Image

Image

Image

Image

Image

Image

Image

Image

Image

_________________


Top
 Profile E-mail  
 
 
PostPosted: 15 Feb 2015 
спирт 100%
User avatar
Joined: 22 Sep 2008
Posts: 4477
Age: 48
Name: Саня
Спасибо! :thanx:


Top
 Profile  
 
 
PostPosted: 15 Feb 2015 
Хиппей (support team)
User avatar
Joined: 30 Jul 2007
Posts: 114979
Lоcаtion: Киев (Kyiv, UA)
Age: 46
Name: Andrey
Хорошей средности.... эээ... В общем, средней хорошести альбом в стиле Melodic Heavy и хелловинщины :crazy:
Не, ну пару лет назад я бы их точно записал в клоны-подражатели Хэлловина, но теперь точно не буду. Опіт ибо уже ж есть :lloo:
Приятная романтическая и не сопливая музычка :meloman:

5/10

_________________


Top
 Profile E-mail  
 
Display posts from previous:  Sort by  
Post new topic Reply to topic  [ 4 posts ] 

All times are UTC + 3 hours


Who is online

Users browsing this forum: No registered users and 2 guests


You cannot post new topics in this forum
You cannot reply to topics in this forum
You cannot edit your posts in this forum
You cannot delete your posts in this forum
You cannot post attachments in this forum

Search for:
Яндекс.Метрика
Powered by phpBB © 2000, 2002, 2005, 2007 phpBB Group