\m/ 80's metal \m/

Информационно-аналитический форум "80 см пыли" (In Search We Trust) "У нас никто никуда не спешит"
Me For You - http://me-4u.com
It is currently 21 Jul 2019

All times are UTC + 3 hours

Spoiler
Chat - temporary registration for foreign users (please leave your application here)







Post new topic Reply to topic  [ 6 posts ] 
Author Message
 
PostPosted: 12 Nov 2014 
Работнечег
User avatar
Joined: 28 Aug 2007
Posts: 5919
Lоcаtion: г. Москва
Age: 30
Name: Дима
Image

Year: 2009
Label: Ektro Records
Genre: Heavy Metal
Coutry: Canada
Format: Flac + Log + Cue + Covers + Video
Size: 394 Mb

Line-Up:
Thor - Lead Vocals
Keith Zazzi - Bass, Backing Vocals
Mike Favata - Drums
Steve Price - Guitars
Pantera - Backing Vocals


Tracklist:
1. Thunder on the Tundra 04:44
2. Let the Blood Run Red 04:17
3. Knock 'em Down 03:54
4. Rock the City 10:12
5. Lightning Strikes 02:29
6. Anger 03:14
7. Keep the Dogs Away 03:02
8. Hot Flames 02:40
9. Now Comes the Storm 02:40
10. When Gods Collide 05:38
Re-released on CD in 2009 by Ektro Records (EKTRO-050) with the following bonus tracks:
11. Start Raisin' Hell (04:47) [live from St. Alban's England, 1985, The City Hall]
12. Ride from Hell (03:37) [live from The Great Yarmouth Festival, Yarmouth, England 1985]
13. We Keep Rockin' On (03:34) [live from The Bohemian Hall, Queens, New York 1985]


LOG
Exact Audio Copy V0.99 prebeta 5 from 4. May 2009

EAC extraction logfile from 10. November 2014, 21:37

Thor / Live In Detroit (Re-released In 2009)

Used drive : PIONEER DVD-RW DVR-116D Adapter: 0 ID: 0

Read mode : Secure
Utilize accurate stream : Yes
Defeat audio cache : Yes
Make use of C2 pointers : No

Read offset correction : 96
Overread into Lead-In and Lead-Out : No
Fill up missing offset samples with silence : Yes
Delete leading and trailing silent blocks : No
Null samples used in CRC calculations : Yes
Used interface : Native Win32 interface for Win NT & 2000

Used output format : User Defined Encoder
Selected bitrate : 32 kBit/s
Quality : High
Add ID3 tag : No
Command line compressor : C:\Program Files\Exact Audio Copy\Flac\flac.exe
Additional command line options : -6 -V %s


TOC of the extracted CD

Track | Start | Length | Start sector | End sector
---------------------------------------------------------
1 | 0:00.00 | 4:44.63 | 0 | 21362
2 | 4:44.63 | 4:17.23 | 21363 | 40660
3 | 9:02.11 | 3:53.74 | 40661 | 58209
4 | 12:56.10 | 10:12.29 | 58210 | 104138
5 | 23:08.39 | 2:29.08 | 104139 | 115321
6 | 25:37.47 | 3:14.63 | 115322 | 129934
7 | 28:52.35 | 3:01.72 | 129935 | 143581
8 | 31:54.32 | 2:40.21 | 143582 | 155602
9 | 34:34.53 | 2:40.26 | 155603 | 167628
10 | 37:15.04 | 5:38.17 | 167629 | 192995
11 | 42:53.21 | 4:47.41 | 192996 | 214561
12 | 47:40.62 | 3:37.58 | 214562 | 230894
13 | 51:18.45 | 3:34.46 | 230895 | 246990


Range status and errors

Selected range

Filename D:\Музыка\Lossless\Thor - Live In Detroit (1985)(Re-released In 2009)\Thor - Live In Detroit (Re-released In 2009).wav

Peak level 96.4 %
Range quality 100.0 %
Copy CRC 1073DFE6
Copy OK

No errors occurred


AccurateRip summary

Track 1 accurately ripped (confidence 1) [0BF59992]
Track 2 accurately ripped (confidence 1) [0CA39234]
Track 3 accurately ripped (confidence 1) [DA21DA17]
Track 4 accurately ripped (confidence 1) [15DC733B]
Track 5 accurately ripped (confidence 1) [1A0BC48F]
Track 6 accurately ripped (confidence 1) [BA284E32]
Track 7 accurately ripped (confidence 1) [87DCBDF5]
Track 8 accurately ripped (confidence 1) [ED4876F9]
Track 9 accurately ripped (confidence 1) [68B295E0]
Track 10 accurately ripped (confidence 1) [6E2D3CB0]
Track 11 accurately ripped (confidence 1) [72FA7362]
Track 12 accurately ripped (confidence 1) [617D95F8]
Track 13 accurately ripped (confidence 1) [347A822D]

All tracks accurately ripped

End of status report

CUE
REM GENRE "Heavy Metal"
REM DATE 2009
REM DISCID C10CDD0D
REM COMMENT "ExactAudioCopy v0.99pb5"
PERFORMER "Thor"
TITLE "Live In Detroit (Re-released In 2009)"
FILE "Thor - Live In Detroit (Re-released In 2009).flac" WAVE
TRACK 01 AUDIO
TITLE "Thunder On The Tundra"
PERFORMER "Thor"
INDEX 01 00:00:00
TRACK 02 AUDIO
TITLE "Let The Blood Run Red"
PERFORMER "Thor"
INDEX 01 04:44:63
TRACK 03 AUDIO
TITLE "Knock Them Down"
PERFORMER "Thor"
INDEX 01 09:02:11
TRACK 04 AUDIO
TITLE "Rock The City"
PERFORMER "Thor"
INDEX 01 12:56:10
TRACK 05 AUDIO
TITLE "Lightning Strikes"
PERFORMER "Thor"
INDEX 01 23:08:39
TRACK 06 AUDIO
TITLE "Anger"
PERFORMER "Thor"
INDEX 01 25:37:47
TRACK 07 AUDIO
TITLE "Keep The Dogs Away"
PERFORMER "Thor"
INDEX 01 28:52:35
TRACK 08 AUDIO
TITLE "Hot Flames"
PERFORMER "Thor"
INDEX 01 31:54:32
TRACK 09 AUDIO
TITLE "Now Comes The Storm"
PERFORMER "Thor"
INDEX 01 34:34:53
TRACK 10 AUDIO
TITLE "When Gods Collide"
PERFORMER "Thor"
INDEX 01 37:15:04
TRACK 11 AUDIO
TITLE "Start Raisin Hell (Bonus)"
PERFORMER "Thor"
INDEX 01 42:53:21
TRACK 12 AUDIO
TITLE "Ride From Hell (Bonus)"
PERFORMER "Thor"
INDEX 01 47:40:62
TRACK 13 AUDIO
TITLE "We Keep Rockin On"
PERFORMER "Thor"
INDEX 01 51:18:45


FLAC


Top
 Profile E-mail  
 
 
PostPosted: 12 Nov 2014 
Персональный статус
User avatar
Joined: 27 Apr 2008
Posts: 229
Lоcаtion: Kovrov-City
Age: 40
Name: Константин
спасибо Дима! радуешь :true:

_________________
Riding high on the black wings of death
Like a nightmare that's choking your breath


Top
 Profile  
 
 
PostPosted: 13 Nov 2014 
Хиппей (support team)
User avatar
Joined: 30 Jul 2007
Posts: 113573
Lоcаtion: Киев (Kyiv, UA)
Age: 46
Name: Andrey
Ого. Аж Костя появился здесь кои-то веки :shok:

Димка, спасибо за лося :thanx:

_________________


Top
 Profile E-mail  
 
 
PostPosted: 13 Nov 2014 
Генеральный thrasher
User avatar
Joined: 03 Oct 2008
Posts: 3714
Lоcаtion: Ханты-Мансийский АО
Age: 44
Name: Сергей
Дим,ты его потихоньку покупаешь что-ли?Или просто цифруешь давно купленное?Я кстати этого товарища так и не удосужился послушать толком... :oops:


Top
 Profile  
 
 
PostPosted: 13 Nov 2014 
Труъ
User avatar
Joined: 27 Feb 2009
Posts: 186
Lоcаtion: Питер
Age: 52
Name: Олег
:thanx:


Top
 Profile  
 
 
PostPosted: 15 Nov 2014 
Работнечег
User avatar
Joined: 28 Aug 2007
Posts: 5919
Lоcаtion: г. Москва
Age: 30
Name: Дима
Дим,ты его потихоньку покупаешь что-ли?Или просто цифруешь давно купленное?Я кстати этого товарища так и не удосужился послушать толком... :oops:

Коснтантин попросил, вот и выкладываю) собственно еще только компиляшка старых вещей Thunderstryke (2012) на диске есть.


Top
 Profile E-mail  
 
Display posts from previous:  Sort by  
Post new topic Reply to topic  [ 6 posts ] 

All times are UTC + 3 hours


Who is online

Users browsing this forum: No registered users and 2 guests


You cannot post new topics in this forum
You cannot reply to topics in this forum
You cannot edit your posts in this forum
You cannot delete your posts in this forum
You cannot post attachments in this forum

Search for:
Яндекс.Метрика
Powered by phpBB © 2000, 2002, 2005, 2007 phpBB Group