\m/ 80's metal \m/

Информационно-аналитический форум "80 см пыли" (In Search We Trust) "У нас никто никуда не спешит"
Me For You - http://me-4u.com
It is currently 16 Sep 2019

All times are UTC + 3 hours

Spoiler
Chat - temporary registration for foreign users (please leave your application here)







Post new topic Reply to topic  [ 7 posts ] 
Author Message
 
PostPosted: 07 Nov 2014 
Работнечег
User avatar
Joined: 28 Aug 2007
Posts: 5984
Lоcаtion: г. Москва
Age: 30
Name: Дима
Image

Year: 2003
Label: Scratch Records
Genre: Heavy Metal
Coutry: Canada
Format: Flac + Log + Cue + Covers + Video
Size: 524 Mb

Line-Up:
Jon Mikl Thor - Lead Vocals
Fang - Bass
GunThar - Drums
Mike O. - Guitars
Ani Kyd - Guitars, Vocals (backing)


Tracklist:
1. March to Glory
2. I Am Thor
3. Anger III
4. Triumphant
5. Intercessor (from the Motion Picture "The Intercessor: Rock 'n' Roll Nightmare 2")
6. Slave
7. Viking's Funeral
8. Back for Blood
9. Graveyard (from the Film "Graveyard")
10. Thunderhawk
11. Throwing Cars at People on Coke with Thor
12. The Guardian's Flame Opus (I. Thunder on the Tundra; II. Crimson Twilite; III. Warhammer)
13. Fubar Is a Super Rocker (from the Motion Picture "Fubar: The Movie")
14. Everybody Needs a Hero
15. Hail Steve Reeves
16. Fubar Is a Super Rocker (VIDEO)
17. Thor Special Video Highlights (VIDEO)

LOG
Exact Audio Copy V0.99 prebeta 5 from 4. May 2009

EAC extraction logfile from 7. November 2014, 18:28

Thor / Triumphant (Re-released In 2003)

Used drive : PIONEER DVD-RW DVR-116D Adapter: 0 ID: 0

Read mode : Secure
Utilize accurate stream : Yes
Defeat audio cache : Yes
Make use of C2 pointers : No

Read offset correction : 96
Overread into Lead-In and Lead-Out : No
Fill up missing offset samples with silence : Yes
Delete leading and trailing silent blocks : No
Null samples used in CRC calculations : Yes
Used interface : Native Win32 interface for Win NT & 2000

Used output format : User Defined Encoder
Selected bitrate : 32 kBit/s
Quality : High
Add ID3 tag : No
Command line compressor : C:\Program Files\Exact Audio Copy\Flac\flac.exe
Additional command line options : -6 -V %s


TOC of the extracted CD

Track | Start | Length | Start sector | End sector
---------------------------------------------------------
1 | 0:00.00 | 1:22.61 | 0 | 6210
2 | 1:22.61 | 3:56.57 | 6211 | 23967
3 | 5:19.43 | 3:20.19 | 23968 | 38986
4 | 8:39.62 | 4:47.67 | 38987 | 60578
5 | 13:27.54 | 3:03.41 | 60579 | 74344
6 | 16:31.20 | 2:50.33 | 74345 | 87127
7 | 19:21.53 | 5:17.11 | 87128 | 110913
8 | 24:38.64 | 4:37.33 | 110914 | 131721
9 | 29:16.22 | 3:37.09 | 131722 | 148005
10 | 32:53.31 | 2:47.70 | 148006 | 160600
11 | 35:41.26 | 2:57.52 | 160601 | 173927
12 | 38:39.03 | 8:06.21 | 173928 | 210398
13 | 46:45.24 | 2:45.40 | 210399 | 222813
14 | 49:30.64 | 3:14.58 | 222814 | 237421
15 | 52:45.47 | 3:11.57 | 237422 | 251803
16 | 58:29.29 | 14:23.16 | 263204 | 327944


Range status and errors

Selected range

Filename D:\Музыка\Lossless\Thor - Triumphant (2002)(Re-released In 2003)\Thor - Triumphant (Re-released In 2003).wav

Peak level 100.0 %
Range quality 99.9 %
Copy CRC FFE24231
Copy OK

No errors occurred


AccurateRip summary

Track 1 accurately ripped (confidence 1) [F06DBF33]
Track 2 accurately ripped (confidence 1) [F971316B]
Track 3 accurately ripped (confidence 1) [D1E969BB]
Track 4 accurately ripped (confidence 1) [CE01FA46]
Track 5 accurately ripped (confidence 1) [8C43A60C]
Track 6 accurately ripped (confidence 1) [A5C9C478]
Track 7 accurately ripped (confidence 1) [5F0BEC26]
Track 8 accurately ripped (confidence 1) [DE1C5C44]
Track 9 accurately ripped (confidence 1) [BD25F23E]
Track 10 accurately ripped (confidence 1) [6409B8E4]
Track 11 accurately ripped (confidence 1) [68985D09]
Track 12 accurately ripped (confidence 1) [F6BFCE6F]
Track 13 accurately ripped (confidence 1) [400E028F]
Track 14 accurately ripped (confidence 1) [C74C5EDA]
Track 15 accurately ripped (confidence 1) [B9D59712]

All tracks accurately ripped

End of status report

CUE
REM GENRE "Heavy Metal"
REM DATE 2002
REM DISCID D7111410
REM COMMENT "ExactAudioCopy v0.99pb5"
PERFORMER "Thor"
TITLE "Triumphant (Re-released In 2003)"
FILE "Thor - Triumphant (Re-released In 2003).flac" WAVE
TRACK 01 AUDIO
TITLE "March To Glory"
PERFORMER "Thor"
FLAGS DCP
INDEX 01 00:00:00
TRACK 02 AUDIO
TITLE "I Am Thor"
PERFORMER "Thor"
FLAGS DCP
INDEX 00 01:20:61
INDEX 01 01:22:61
TRACK 03 AUDIO
TITLE "Anger III"
PERFORMER "Thor"
FLAGS DCP
INDEX 00 05:17:43
INDEX 01 05:19:43
TRACK 04 AUDIO
TITLE "Triumphant"
PERFORMER "Thor"
FLAGS DCP
INDEX 00 08:37:62
INDEX 01 08:39:62
TRACK 05 AUDIO
TITLE "Intercessor"
PERFORMER "Thor"
FLAGS DCP
INDEX 00 13:25:54
INDEX 01 13:27:54
TRACK 06 AUDIO
TITLE "Slave"
PERFORMER "Thor"
FLAGS DCP
INDEX 00 16:29:20
INDEX 01 16:31:20
TRACK 07 AUDIO
TITLE "Viking's Funeral"
PERFORMER "Thor"
FLAGS DCP
INDEX 00 19:19:53
INDEX 01 19:21:53
TRACK 08 AUDIO
TITLE "Back For Blood"
PERFORMER "Thor"
FLAGS DCP
INDEX 00 24:36:64
INDEX 01 24:38:64
TRACK 09 AUDIO
TITLE "GraveYard"
PERFORMER "Thor"
FLAGS DCP
INDEX 00 29:14:22
INDEX 01 29:16:22
TRACK 10 AUDIO
TITLE "Thunderhawk"
PERFORMER "Thor"
FLAGS DCP
INDEX 00 32:51:32
INDEX 01 32:53:31
TRACK 11 AUDIO
TITLE "Throwing Cars At People On Coke With Thor"
PERFORMER "Thor"
FLAGS DCP
INDEX 00 35:39:26
INDEX 01 35:41:26
TRACK 12 AUDIO
TITLE "The Guardian's Flame Opus (I. Thunder on the Tundra; II. Crimson Twilite; III..."
PERFORMER "Thor"
FLAGS DCP
INDEX 00 38:37:03
INDEX 01 38:39:03
TRACK 13 AUDIO
TITLE "Fubar Is a Super Rocker (from the Motion Picture 'Fubar: The Movie')"
PERFORMER "Thor"
FLAGS DCP
INDEX 00 46:43:24
INDEX 01 46:45:24
TRACK 14 AUDIO
TITLE "Everybody Needs A Hero"
PERFORMER "Thor"
FLAGS DCP
INDEX 00 49:28:64
INDEX 01 49:30:64
TRACK 15 AUDIO
TITLE "Hail Steve Reeves"
PERFORMER "Thor"
FLAGS DCP
INDEX 00 52:43:48
INDEX 01 52:45:47


FLAC

Если брать позднее творчество Тора, то этот альбом вполне олдскулен и очень неплох! Отчасти из-за того, что тут присутствуют некоторые старые песни группы, такие как Anger, Thunder Of The Tundra, Warhammer, Thunderhawk. Стоит отметить хитовые Intercessor, Triumphant, GraveYard, Fubar Is a Super Rocker и Everybody Needs a Hero. Как обычно не обошлось без пары откровенно модерновых песен (Slave, Back For Blood, Throwing Cars at People on Coke with Thor). В целом альбом неоднородный, но за счет довольно большого количества хороших песенок и парочки хитов оставляет приятные впечатления! :true:




Top
 Profile E-mail  
 
 
PostPosted: 08 Nov 2014 
Прокъмитолист
User avatar
Joined: 12 Aug 2007
Posts: 6600
Lоcаtion: Санктъ-Петербуркъ
Age: 51
Name: Олекъ
Димка, спасибо! :thanx: как ты там? оклемался уже?

_________________
прокъметол - это музыко, от которово есть прок (ы)


Top
 Profile  
 
 
PostPosted: 08 Nov 2014 
Работнечег
User avatar
Joined: 28 Aug 2007
Posts: 5984
Lоcаtion: г. Москва
Age: 30
Name: Дима
Димка, спасибо! :thanx: как ты там? оклемался уже?

Да вроде да, уже даже поработал два денечка :true:


Top
 Profile E-mail  
 
 
PostPosted: 08 Nov 2014 
Генеральный thrasher
User avatar
Joined: 03 Oct 2008
Posts: 3730
Lоcаtion: Ханты-Мансийский АО
Age: 44
Name: Сергей
Дим,простыл что-ли?


Top
 Profile  
 
 
PostPosted: 08 Nov 2014 
Я набрал 1000 сообщений!
Joined: 24 Oct 2009
Posts: 2251
Lоcаtion: Оренбург
Age: 56
Name: Юра
church wrote:
Да вроде да, уже даже поработал два денечка :true:


Касторкой лечился? :nodrugs: Привет, Дим!

_________________
:dash: I am happy!


Top
 Profile E-mail  
 
 
PostPosted: 08 Nov 2014 
Работнечег
User avatar
Joined: 28 Aug 2007
Posts: 5984
Lоcаtion: г. Москва
Age: 30
Name: Дима
Ага, повалялся с температуркой полторы недельки :( Лечился все подряд :true:
P.S. Топик уже переименовывать можно :crazy:


Top
 Profile E-mail  
 
 
PostPosted: 09 Nov 2014 
Персональный статус
User avatar
Joined: 27 Apr 2008
Posts: 233
Lоcаtion: Kovrov-City
Age: 41
Name: Константин
Хотел бы тоже поблагодарить Дмитрия за выложенный альбом, в том числе и по моей просьбе

_________________
Riding high on the black wings of death
Like a nightmare that's choking your breath


Top
 Profile  
 
Display posts from previous:  Sort by  
Post new topic Reply to topic  [ 7 posts ] 

All times are UTC + 3 hours


Who is online

Users browsing this forum: No registered users and 1 guest


You cannot post new topics in this forum
You cannot reply to topics in this forum
You cannot edit your posts in this forum
You cannot delete your posts in this forum
You cannot post attachments in this forum

Search for:
Яндекс.Метрика
Powered by phpBB © 2000, 2002, 2005, 2007 phpBB Group