\m/ 80's metal \m/

Информационно-аналитический форум "80 см пыли" (In Search We Trust) "У нас никто никуда не спешит"
Me For You - http://me-4u.com
It is currently 24 Jul 2019

All times are UTC + 3 hours

Spoiler
Chat - temporary registration for foreign users (please leave your application here)







Post new topic Reply to topic  [ 35 posts ]  Go to page Previous  1, 2
Author Message
 
PostPosted: 14 Sep 2014 
Хиппей (support team)
User avatar
Joined: 30 Jul 2007
Posts: 113651
Lоcаtion: Киев (Kyiv, UA)
Age: 46
Name: Andrey
Серёг, а ты ДВД группы качал? :oops: http://rutracker.org/forum/viewtopic.php?t=1849403

_________________


Top
 Profile E-mail  
 
 
PostPosted: 14 Sep 2014 
Хиппей (support team)
User avatar
Joined: 30 Jul 2007
Posts: 113651
Lоcаtion: Киев (Kyiv, UA)
Age: 46
Name: Andrey
Toad - 1993 - Stop This Crime [ape]

Image Image Image Image

mirror: Narod l M-Cloud

Офигенный альбом :meloman:
Хоть и стилистика варьируется от классик-рока, прог-рока и полна прекрасными балладами (особенно когда на вокале выступает дивчина), но есть и весьма тяжелые увесистые такие байкерские боевики :true:

log
7+/10

Exact Audio Copy V0.99 prebeta 5 from 4. May 2009

Отчёт EAC об извлечении, выполненном 12. июля 2010, 21:59

Toad / Stop This Crime

Дисковод: Optiarc DVD RW AD-7203S Adapter: 3 ID: 1

Режим чтения : Достоверность
Использование точного потока : Да
Отключение кэша аудио : Да
Использование указателей C2 : Нет

Коррекция смещения при чтении : 48
Способность читать области Lead-in и Lead-out : Нет
Заполнение пропущенных сэмплов тишиной : Да
Удаление блоков с тишиной в начале и конце : Нет
При вычислениях CRC использовались нулевые сэмплы : Да
Интерфейс : Встроенный Win32-интерфейс для Win NT/2000

Выходной формат : Внутренние WAV-операции
Формат сэмплов : 44.100 Гц; 16 бит; стерео


TOC извлечённого CD

Трек | Старт | Длительность | Начальный сектор | Конечный сектор
---------------------------------------------------------------------
1 | 0:00.00 | 4:22.70 | 0 | 19719
2 | 4:22.70 | 4:47.25 | 19720 | 41269
3 | 9:10.20 | 4:20.50 | 41270 | 60819
4 | 13:30.70 | 3:01.50 | 60820 | 74444
5 | 16:32.45 | 4:47.45 | 74445 | 96014
6 | 21:20.15 | 3:07.55 | 96015 | 110094
7 | 24:27.70 | 6:09.65 | 110095 | 137834
8 | 30:37.60 | 5:14.60 | 137835 | 161444
9 | 35:52.45 | 4:07.50 | 161445 | 180019
10 | 40:00.20 | 3:58.25 | 180020 | 197894
11 | 43:58.45 | 2:40.37 | 197895 | 209931
12 | 46:39.07 | 2:28.15 | 209932 | 221046


Характеристики диапазона извлечения и сообщения об ошибках

Выбранный диапазон

Имя файла D:\Alcohol 120\Toad - Stop This Crime.wav

Пиковый уровень 100.0 %
Качество диапазона 99.9 %
CRC копии 23490D03
Копирование... OK

Ошибок не произошло

Конец отчёта

cue
REM GENRE Rock
REM DATE 1993
REM DISCID 9C0B830C
REM COMMENT "ExactAudioCopy v0.99pb5"
PERFORMER "Toad"
TITLE "Stop This Crime"
FILE "Toad - Stop This Crime.wav" WAVE
TRACK 01 AUDIO
TITLE "Let's Rock"
PERFORMER "Toad"
INDEX 01 00:00:00
TRACK 02 AUDIO
TITLE "Down to the Bone"
PERFORMER "Toad"
INDEX 01 04:22:70
TRACK 03 AUDIO
TITLE "Stop This Crime"
PERFORMER "Toad"
INDEX 01 09:10:20
TRACK 04 AUDIO
TITLE "Hate to Hate"
PERFORMER "Toad"
INDEX 01 13:30:70
TRACK 05 AUDIO
TITLE "I Don't Wanna Losу You"
PERFORMER "Toad"
INDEX 01 16:32:45
TRACK 06 AUDIO
TITLE "Money Don't Matter"
PERFORMER "Toad"
INDEX 01 21:20:15
TRACK 07 AUDIO
TITLE "It Took You Just One Minute"
PERFORMER "Toad"
INDEX 01 24:27:70
TRACK 08 AUDIO
TITLE "The Game She Play"
PERFORMER "Toad"
INDEX 01 30:37:60
TRACK 09 AUDIO
TITLE "War Is Dumb"
PERFORMER "Toad"
INDEX 01 35:52:45
TRACK 10 AUDIO
TITLE "Julia's Got the Blues"
PERFORMER "Toad"
INDEX 01 40:00:20
TRACK 11 AUDIO
TITLE "Help Me Babe"
PERFORMER "Toad"
INDEX 01 43:58:45
TRACK 12 AUDIO
TITLE "Ain't Nobody Gonna Worry"
PERFORMER "Toad"
INDEX 01 46:39:07

_________________


Top
 Profile E-mail  
 
 
PostPosted: 14 Sep 2014 
парень в очёчкXаX!
User avatar
Joined: 15 Aug 2007
Posts: 2353
Lоcаtion: UK'раина, г. ЛондАн Би-Би-Си
Age: 48
Name: Сергей
..... молчат все молча, и не одну неделю..

а шО такое? шО сразу молчат? шо сразу УСЕ????

ты вот спецом запрос сделал, када я пиццу ел.........никто не молчит, тока я! а када я йем, я очшень НЕМ :nunu: :au:

:drink:


Top
 Profile  
 
 
PostPosted: 14 Sep 2014 
Хиппей (support team)
User avatar
Joined: 30 Jul 2007
Posts: 113651
Lоcаtion: Киев (Kyiv, UA)
Age: 46
Name: Andrey
И я молча молчал, пока не спросил словами у неких лаптей лично :dance:

_________________


Top
 Profile E-mail  
 
 
PostPosted: 15 Sep 2014 
Хиппей (support team)
User avatar
Joined: 30 Jul 2007
Posts: 113651
Lоcаtion: Киев (Kyiv, UA)
Age: 46
Name: Andrey
Toad - 1970 - B.U.F.O. (reissued 2003) [flacs]

Image Image Image

mirror: Narod l M-Cloud

Довольно жесткий классик рок 70-х. Хард-рок даже. С надрывной гитарой и ритм-секцией тяжелой :true:
Ну и мелодизм и сайкоделию 70-х никуды не пропить :meloman:

6/10

log
X Lossless Decoder version 20100711 (120.5)

XLD extraction logfile from 2010-07-23 22:35:06 +0200

Toad / B.U.F.O. (1970 Acetate)

Used drive : PLEXTOR DVDR PX-708A (revision 1.11)

Use cdparanoia mode : YES (CDParanoia III 10.2 engine)
Disable audio cache : OK for the drive with cache less than 2750KB
Make use of C2 pointers : NO
Read offset correction : 30
Max retry count : 20
Gap status : Analyzed, Appended

TOC of the extracted CD
Track | Start | Length | Start sector | End sector
---------------------------------------------------------
1 | 00:00:00 | 04:23:22 | 0 | 19746
2 | 04:23:22 | 03:11:28 | 19747 | 34099
3 | 07:34:50 | 03:40:30 | 34100 | 50629
4 | 11:15:05 | 05:06:45 | 50630 | 73624
5 | 16:21:50 | 04:35:62 | 73625 | 94311
6 | 20:57:37 | 02:17:45 | 94312 | 104631
7 | 23:15:07 | 05:18:18 | 104632 | 128499
8 | 28:33:25 | 04:08:15 | 128500 | 147114
9 | 32:41:40 | 04:49:65 | 147115 | 168854
10 | 37:31:30 | 06:14:72 | 168855 | 196976
11 | 43:46:27 | 04:10:35 | 196977 | 215761


Track 01
Filename : /Volumes/Multimedia/MP3/temp/01 Toad - Pig's Walk (Alternate Version).flac

Pre-gap length : 00:02:00

CRC32 hash : 9C891475
CRC32 hash (skip zero) : DAF62863
AccurateRip signature : C6F9A12A
->Accurately ripped! (confidence 1)
Statistics
Read error : 0
Skipped (treated as error) : 0
Edge jitter error (maybe fixed) : 0
Atom jitter error (maybe fixed) : 0
Drift error (maybe fixed) : 0
Dropped bytes error (maybe fixed) : 0
Duplicated bytes error (maybe fixed) : 0

Track 02
Filename : /Volumes/Multimedia/MP3/temp/02 Toad - Pig's Walk - Reprise (Alternate Version).flac

CRC32 hash : CA994014
CRC32 hash (skip zero) : 154A9CEF
AccurateRip signature : 6044D7AC
->Accurately ripped! (confidence 1)
Statistics
Read error : 0
Skipped (treated as error) : 0
Edge jitter error (maybe fixed) : 0
Atom jitter error (maybe fixed) : 0
Drift error (maybe fixed) : 0
Dropped bytes error (maybe fixed) : 0
Duplicated bytes error (maybe fixed) : 0

Track 03
Filename : /Volumes/Multimedia/MP3/temp/03 Toad - Animal's World (Alternate Version).flac

CRC32 hash : 39E6D1AC
CRC32 hash (skip zero) : 09029FD4
AccurateRip signature : 97D51621
->Accurately ripped! (confidence 1)
Statistics
Read error : 0
Skipped (treated as error) : 0
Edge jitter error (maybe fixed) : 0
Atom jitter error (maybe fixed) : 0
Drift error (maybe fixed) : 0
Dropped bytes error (maybe fixed) : 0
Duplicated bytes error (maybe fixed) : 0

Track 04
Filename : /Volumes/Multimedia/MP3/temp/04 Toad - Animal's World (Alternate Version).flac

CRC32 hash : 4A424B38
CRC32 hash (skip zero) : 251AFA84
AccurateRip signature : 4B73ABDA
->Accurately ripped! (confidence 1)
Statistics
Read error : 0
Skipped (treated as error) : 0
Edge jitter error (maybe fixed) : 0
Atom jitter error (maybe fixed) : 0
Drift error (maybe fixed) : 0
Dropped bytes error (maybe fixed) : 0
Duplicated bytes error (maybe fixed) : 0

Track 05
Filename : /Volumes/Multimedia/MP3/temp/05 Toad - No Time.flac

CRC32 hash : 657BDD70
CRC32 hash (skip zero) : A30CA49C
AccurateRip signature : D57A85B6
->Accurately ripped! (confidence 1)
Statistics
Read error : 0
Skipped (treated as error) : 0
Edge jitter error (maybe fixed) : 0
Atom jitter error (maybe fixed) : 0
Drift error (maybe fixed) : 0
Dropped bytes error (maybe fixed) : 0
Duplicated bytes error (maybe fixed) : 0

Track 06
Filename : /Volumes/Multimedia/MP3/temp/06 Toad - Walking In The Moonlight.flac

CRC32 hash : 9AD0FFBC
CRC32 hash (skip zero) : 89855E13
AccurateRip signature : BB63B0B3
->Accurately ripped! (confidence 1)
Statistics
Read error : 0
Skipped (treated as error) : 0
Edge jitter error (maybe fixed) : 0
Atom jitter error (maybe fixed) : 0
Drift error (maybe fixed) : 0
Dropped bytes error (maybe fixed) : 0
Duplicated bytes error (maybe fixed) : 0

Track 07
Filename : /Volumes/Multimedia/MP3/temp/07 Toad - Dream Girl.flac

CRC32 hash : 7FCB60A7
CRC32 hash (skip zero) : 75C1F5E2
AccurateRip signature : D1139561
->Accurately ripped! (confidence 1)
Statistics
Read error : 0
Skipped (treated as error) : 0
Edge jitter error (maybe fixed) : 0
Atom jitter error (maybe fixed) : 0
Drift error (maybe fixed) : 0
Dropped bytes error (maybe fixed) : 0
Duplicated bytes error (maybe fixed) : 0

Track 08
Filename : /Volumes/Multimedia/MP3/temp/08 Toad - A Life That Ain't Worth Livin'.flac

CRC32 hash : 392A21B1
CRC32 hash (skip zero) : 20557847
AccurateRip signature : 2E76DDB3
->Accurately ripped! (confidence 1)
Statistics
Read error : 0
Skipped (treated as error) : 0
Edge jitter error (maybe fixed) : 0
Atom jitter error (maybe fixed) : 0
Drift error (maybe fixed) : 0
Dropped bytes error (maybe fixed) : 0
Duplicated bytes error (maybe fixed) : 0

Track 09
Filename : /Volumes/Multimedia/MP3/temp/09 Toad - Tank.flac

CRC32 hash : 839F922C
CRC32 hash (skip zero) : FAC04729
AccurateRip signature : 374B1E28
->Accurately ripped! (confidence 1)
Statistics
Read error : 0
Skipped (treated as error) : 0
Edge jitter error (maybe fixed) : 0
Atom jitter error (maybe fixed) : 0
Drift error (maybe fixed) : 0
Dropped bytes error (maybe fixed) : 0
Duplicated bytes error (maybe fixed) : 0

Track 10
Filename : /Volumes/Multimedia/MP3/temp/10 Toad - Feelin' Alright.flac

CRC32 hash : 554B9608
CRC32 hash (skip zero) : D98E271D
AccurateRip signature : 4756A506
->Accurately ripped! (confidence 1)
Statistics
Read error : 0
Skipped (treated as error) : 0
Edge jitter error (maybe fixed) : 0
Atom jitter error (maybe fixed) : 0
Drift error (maybe fixed) : 0
Dropped bytes error (maybe fixed) : 0
Duplicated bytes error (maybe fixed) : 0

Track 11
Filename : /Volumes/Multimedia/MP3/temp/11 Toad - Lone Wolf Rocks.flac

CRC32 hash : 38AAAF28
CRC32 hash (skip zero) : 4471DB17
AccurateRip signature : CD30CCE4
->Accurately ripped! (confidence 1)
Statistics
Read error : 0
Skipped (treated as error) : 0
Edge jitter error (maybe fixed) : 0
Atom jitter error (maybe fixed) : 0
Drift error (maybe fixed) : 0
Dropped bytes error (maybe fixed) : 0
Duplicated bytes error (maybe fixed) : 0

No errors occurred

End of status report

cue
TITLE "B.U.F.O. (1970 Acetate)"
PERFORMER "Toad"
REM GENRE "Progressive Rock"
REM DATE 2003
REM DISCID AA0B3C0B
FILE "CDImage.wav" WAVE
TRACK 01 AUDIO
TITLE "Pig's Walk (Alternate Version)"
INDEX 01 00:00:00
TRACK 02 AUDIO
TITLE "Pig's Walk - Reprise (Alternate Version)"
INDEX 01 04:23:22
TRACK 03 AUDIO
TITLE "Animal's World (Alternate Version)"
INDEX 01 07:34:50
TRACK 04 AUDIO
TITLE "Animal's World (Alternate Version)"
INDEX 01 11:15:05
TRACK 05 AUDIO
TITLE "No Time"
INDEX 01 16:21:50
TRACK 06 AUDIO
TITLE "Walking In The Moonlight"
INDEX 01 20:57:37
TRACK 07 AUDIO
TITLE "Dream Girl"
INDEX 01 23:15:07
TRACK 08 AUDIO
TITLE "A Life That Ain't Worth Livin'"
INDEX 01 28:33:25
TRACK 09 AUDIO
TITLE "Tank"
INDEX 01 32:41:40
TRACK 10 AUDIO
TITLE "Feelin' Alright"
INDEX 01 37:31:30
TRACK 11 AUDIO
TITLE "Lone Wolf Rocks"
INDEX 01 43:46:27

_________________


Top
 Profile E-mail  
 
 
PostPosted: 15 Sep 2014 
Почётный металлург
User avatar
Joined: 15 Sep 2007
Posts: 4358
Lоcаtion: Хабаровск
Age: 59
Name: чуть выше
Scatterbrain wrote:
Серёг, а ты ДВД группы качал?

угу

_________________
Коль будешь людей ты ослами честить,
тебе человеком меж них не прослыть!
(Саади, персидский поэт, 13в.)


Top
 Profile  
 
 
PostPosted: 15 Sep 2014 
Почётный металлург
User avatar
Joined: 15 Sep 2007
Posts: 4358
Lоcаtion: Хабаровск
Age: 59
Name: чуть выше
attax wrote:
ты вот спецом запрос сделал, када я пиццу ел.........никто не молчит, тока я! а када я йем

Scatterbrain wrote:
И я молча молчал, пока не спросил словами у неких лаптей лично

ну вам не угодишь! :nea: :blum: :smile:
Scatterbrain wrote:
Toad - 1970 - B.U.F.O.

Это не номерной походу. Мой любимый - второй "Tomorrow Blue", хотя все классные.

_________________
Коль будешь людей ты ослами честить,
тебе человеком меж них не прослыть!
(Саади, персидский поэт, 13в.)


Top
 Profile  
 
 
PostPosted: 15 Sep 2014 
Хиппей (support team)
User avatar
Joined: 30 Jul 2007
Posts: 113651
Lоcаtion: Киев (Kyiv, UA)
Age: 46
Name: Andrey
Sergey wrote:
Это не номерной походу.

Сборка из разных вариантов песен.
Там на задней облоге всё указано, я потому и трэк-лист не копировал.

_________________


Top
 Profile E-mail  
 
 
PostPosted: 22 Sep 2014 
Хиппей (support team)
User avatar
Joined: 30 Jul 2007
Posts: 113651
Lоcаtion: Киев (Kyiv, UA)
Age: 46
Name: Andrey
Toad - 1978 - Yearnin' Learnin' - Live 1978 [FLAC 2008 - Akarma Records _ AK 387]

Image Image Image Image Image Image Image


mirror: Narod l M-Cloud

log
Exact Audio Copy V0.99 prebeta 4 from 23. January 2008

EAC extraction logfile from 17. January 2010, 21:38

Toad / Yearnin' Learnin': Live 1978

Used drive : TSSTcorpCD/DVDW TS-L632D Adapter: 0 ID: 1

Read mode : Secure
Utilize accurate stream : Yes
Defeat audio cache : Yes
Make use of C2 pointers : No

Read offset correction : 6
Overread into Lead-In and Lead-Out : No
Fill up missing offset samples with silence : Yes
Delete leading and trailing silent blocks : No
Null samples used in CRC calculations : Yes
Used interface : Native Win32 interface for Win NT & 2000
Gap handling : Not detected, thus appended to previous track

Used output format : User Defined Encoder
Selected bitrate : 128 kBit/s
Quality : High
Add ID3 tag : No
Command line compressor : C:\Program Files\FLAC\flac.exe
Additional command line options : -8 -V -T "ARTIST=%a" -T "TITLE=%t" -T "ALBUM=%g" -T "DATE=%y" -T "TRACKNUMBER=%n" -T "GENRE=%m" -T "COMMENT=%e" %s -o %d


TOC of the extracted CD

Track | Start | Length | Start sector | End sector
---------------------------------------------------------
1 | 0:00.00 | 4:06.23 | 0 | 18472
2 | 4:06.23 | 3:59.69 | 18473 | 36466
3 | 8:06.17 | 3:14.34 | 36467 | 51050
4 | 11:20.51 | 2:35.49 | 51051 | 62724
5 | 13:56.25 | 4:10.33 | 62725 | 81507
6 | 18:06.58 | 7:16.37 | 81508 | 114244
7 | 25:23.20 | 6:42.69 | 114245 | 144463
8 | 32:06.14 | 4:06.27 | 144464 | 162940
9 | 36:12.41 | 4:26.61 | 162941 | 182951
10 | 40:39.27 | 3:53.47 | 182952 | 200473
11 | 44:32.74 | 3:23.12 | 200474 | 215710
12 | 47:56.11 | 3:49.16 | 215711 | 232901
13 | 51:45.27 | 9:00.42 | 232902 | 273443
14 | 60:45.69 | 4:45.71 | 273444 | 294889


Track 1

Filename D:\EAC\01 - 'Cause You're Not.wav

Peak level 97.7 %
Track quality 100.0 %
Test CRC CA4F9111
Copy CRC CA4F9111
Cannot be verified as accurate (confidence 1) [A5A22831], AccurateRip returned [3FF3193A]
Copy OK

Track 2

Filename D:\EAC\02 - Yearnin' Learnin'.wav

Peak level 97.7 %
Track quality 100.0 %
Test CRC E0ACD29A
Copy CRC E0ACD29A
Track not present in AccurateRip database
Copy OK

Track 3

Filename D:\EAC\03 - Makin' You Feel Alright.wav

Peak level 97.7 %
Track quality 100.0 %
Test CRC 6594B8FE
Copy CRC 6594B8FE
Track not present in AccurateRip database
Copy OK

Track 4

Filename D:\EAC\04 - I'm Going.wav

Peak level 97.7 %
Track quality 100.0 %
Test CRC 764D614D
Copy CRC 764D614D
Track not present in AccurateRip database
Copy OK

Track 5

Filename D:\EAC\05 - Behind the Wheels.wav

Peak level 97.7 %
Track quality 100.0 %
Test CRC 9B3A5A5C
Copy CRC 9B3A5A5C
Cannot be verified as accurate (confidence 1) [A330FCD8], AccurateRip returned [72A9F20A]
Copy OK

Track 6

Filename D:\EAC\06 - Tomorrow Blue.wav

Peak level 97.7 %
Track quality 100.0 %
Test CRC B2588BF8
Copy CRC B2588BF8
Track not present in AccurateRip database
Copy OK

Track 7

Filename D:\EAC\07 - Mama Come Back.wav

Peak level 97.7 %
Track quality 100.0 %
Test CRC E46DE7D4
Copy CRC E46DE7D4
Cannot be verified as accurate (confidence 1) [9EFDAD41], AccurateRip returned [616108A5]
Copy OK

Track 8

Filename D:\EAC\08 - Down to the Bone.wav

Peak level 97.7 %
Track quality 99.9 %
Test CRC 58579793
Copy CRC 58579793
Cannot be verified as accurate (confidence 1) [ED503EF8], AccurateRip returned [665D9F29]
Copy OK

Track 9

Filename D:\EAC\09 - Bring It Up.wav

Peak level 97.7 %
Track quality 100.0 %
Test CRC F99E1FBC
Copy CRC F99E1FBC
Track not present in AccurateRip database
Copy OK

Track 10

Filename D:\EAC\10 - I Wish You Were Here.wav

Peak level 97.7 %
Track quality 100.0 %
Test CRC 2767EFB8
Copy CRC 2767EFB8
Track not present in AccurateRip database
Copy OK

Track 11

Filename D:\EAC\11 - Usin' My Life.wav

Peak level 97.7 %
Track quality 100.0 %
Test CRC 8AB2DEF6
Copy CRC 8AB2DEF6
Track not present in AccurateRip database
Copy OK

Track 12

Filename D:\EAC\12 - Purple Haze.wav

Peak level 97.7 %
Track quality 100.0 %
Test CRC 3FBF5F00
Copy CRC 3FBF5F00
Track not present in AccurateRip database
Copy OK

Track 13

Filename D:\EAC\13 - Red House.wav

Peak level 97.7 %
Track quality 100.0 %
Test CRC C95D76F9
Copy CRC C95D76F9
Track not present in AccurateRip database
Copy OK

Track 14

Filename D:\EAC\14 - Drums Solo.wav

Peak level 97.7 %
Track quality 100.0 %
Test CRC EECD0BDA
Copy CRC EECD0BDA
Track not present in AccurateRip database
Copy OK


4 track(s) could not be verified as accurate
0 track(s) not present in the AccurateRip database

No tracks could be verified as accurate
You may have a different pressing from the one(s) in the database

No errors occurred

End of status report

cue
REM GENRE "Psychedelic Rock"
REM DATE 1978
REM DISCID DD0F5B0E
REM COMMENT "ExactAudioCopy v0.99pb4"
PERFORMER "Toad"
TITLE "Yearnin' Learnin': Live 1978"
FILE "01 - 'Cause You're Not.wav" WAVE
TRACK 01 AUDIO
TITLE "'Cause You're Not "
PERFORMER "Toad"
INDEX 01 00:00:00
FILE "02 - Yearnin' Learnin'.wav" WAVE
TRACK 02 AUDIO
TITLE "Yearnin' Learnin'"
PERFORMER "Toad"
INDEX 01 00:00:00
FILE "03 - Makin' You Feel Alright .wav" WAVE
TRACK 03 AUDIO
TITLE "Makin' You Feel Alright "
PERFORMER "Toad"
INDEX 01 00:00:00
FILE "04 - I'm Going.wav" WAVE
TRACK 04 AUDIO
TITLE "I'm Going"
PERFORMER "Toad"
INDEX 01 00:00:00
FILE "05 - Behind the Wheels.wav" WAVE
TRACK 05 AUDIO
TITLE "Behind the Wheels "
PERFORMER "Toad"
INDEX 01 00:00:00
FILE "06 - Tomorrow Blue.wav" WAVE
TRACK 06 AUDIO
TITLE "Tomorrow Blue "
PERFORMER "Toad"
INDEX 01 00:00:00
FILE "07 - Mama Come Back.wav" WAVE
TRACK 07 AUDIO
TITLE "Mama Come Back "
PERFORMER "Toad"
INDEX 01 00:00:00
FILE "08 - Down to the Bone.wav" WAVE
TRACK 08 AUDIO
TITLE "Down to the Bone"
PERFORMER "Toad"
INDEX 01 00:00:00
FILE "09 - Bring It Up.wav" WAVE
TRACK 09 AUDIO
TITLE "Bring It Up"
PERFORMER "Toad"
INDEX 01 00:00:00
FILE "10 - I Wish You Were Here.wav" WAVE
TRACK 10 AUDIO
TITLE "I Wish You Were Here"
PERFORMER "Toad"
INDEX 01 00:00:00
FILE "11 - Usin' My Life.wav" WAVE
TRACK 11 AUDIO
TITLE "Usin' My Life"
PERFORMER "Toad"
INDEX 01 00:00:00
FILE "12 - Purple Haze.wav" WAVE
TRACK 12 AUDIO
TITLE "Purple Haze "
PERFORMER "Toad"
INDEX 01 00:00:00
FILE "13 - Red House.wav" WAVE
TRACK 13 AUDIO
TITLE "Red House "
PERFORMER "Toad"
INDEX 01 00:00:00
FILE "14 - Drums Solo.wav" WAVE
TRACK 14 AUDIO
TITLE "Drums Solo"
PERFORMER "Toad"
INDEX 01 00:00:00

_________________


Top
 Profile E-mail  
 
 
PostPosted: 22 Sep 2014 
Хиппей (support team)
User avatar
Joined: 30 Jul 2007
Posts: 113651
Lоcаtion: Киев (Kyiv, UA)
Age: 46
Name: Andrey
Toad - 1971 - Toad (reissued 2001 - Second Battle Rec.) [flac]

Image Image

mirror: Narod l M-Cloud

log
Exact Audio Copy V1.0 beta 3 from 29. August 2011

EAC extraction logfile from 18. February 2013, 13:30

Toad / Toad

Used drive : Optiarc BDRW BD-M100A Adapter: 0 ID: 0

Read mode : Secure
Utilize accurate stream : Yes
Defeat audio cache : Yes
Make use of C2 pointers : No

Read offset correction : 102
Overread into Lead-In and Lead-Out : No
Fill up missing offset samples with silence : Yes
Delete leading and trailing silent blocks : No
Null samples used in CRC calculations : Yes
Used interface : Native Win32 interface for Win NT & 2000

Used output format : User Defined Encoder
Selected bitrate : 128 kBit/s
Quality : High
Add ID3 tag : No
Command line compressor : C:\Program Files (x86)\Exact Audio Copy\Flac\flac.exe
Additional command line options : -V -8 -T "Date=%year%" -T "Genre=%genre%" %source%


TOC of the extracted CD

Track | Start | Length | Start sector | End sector
---------------------------------------------------------
1 | 0:00.00 | 8:33.52 | 0 | 38526
2 | 8:33.52 | 3:30.45 | 38527 | 54321
3 | 12:04.22 | 3:29.20 | 54322 | 70016
4 | 15:33.42 | 6:48.70 | 70017 | 100686
5 | 22:22.37 | 11:59.68 | 100687 | 154679
6 | 34:22.30 | 7:27.55 | 154680 | 188259
7 | 41:50.10 | 2:34.57 | 188260 | 199866
8 | 44:24.67 | 3:32.25 | 199867 | 215791
9 | 47:57.17 | 3:11.35 | 215792 | 230151
10 | 51:08.52 | 6:47.00 | 230152 | 260676
11 | 57:55.52 | 4:19.73 | 260677 | 280174


Range status and errors

Selected range

Filename C:\Users\User\Desktop\Rutracker\Toad\Toad - Toad.wav

Peak level 98.0 %
Extraction speed 5.3 X
Range quality 99.9 %
Test CRC BFB6CE9D
Copy CRC BFB6CE9D
Copy OK

No errors occurred

End of status report

==== Log checksum DE43D5FDFAF9967D32AA29FCCA5DF5426016FF3400203B37733095A7757D5E26 ====

cue
REM GENRE Rock
REM DATE 1971
REM DISCID 9C0E970B
REM COMMENT "ExactAudioCopy v1.0b3"
PERFORMER "Toad"
TITLE "Toad"
FILE "Toad - Toad.flac" WAVE
TRACK 01 AUDIO
TITLE "Cotton Wood Hill"
PERFORMER "Toad"
INDEX 01 00:00:00
TRACK 02 AUDIO
TITLE "A Life That Ain't Worth Living"
PERFORMER "Toad"
INDEX 00 08:32:45
INDEX 01 08:33:52
TRACK 03 AUDIO
TITLE "Tank"
PERFORMER "Toad"
INDEX 00 12:02:60
INDEX 01 12:04:22
TRACK 04 AUDIO
TITLE "They Say I'm Mad"
PERFORMER "Toad"
INDEX 00 15:31:52
INDEX 01 15:33:42
TRACK 05 AUDIO
TITLE "Life Goes On"
PERFORMER "Toad"
INDEX 00 22:20:42
INDEX 01 22:22:37
TRACK 06 AUDIO
TITLE "Pig's Walk"
PERFORMER "Toad"
INDEX 00 34:20:32
INDEX 01 34:22:30
TRACK 07 AUDIO
TITLE "The One I Mean"
PERFORMER "Toad"
INDEX 00 41:47:60
INDEX 01 41:50:10
TRACK 08 AUDIO
TITLE "Stay"
PERFORMER "Toad"
INDEX 00 44:23:12
INDEX 01 44:24:67
TRACK 09 AUDIO
TITLE "Animals World"
PERFORMER "Toad"
INDEX 00 47:55:25
INDEX 01 47:57:17
TRACK 10 AUDIO
TITLE "Fly"
PERFORMER "Toad"
INDEX 00 51:07:20
INDEX 01 51:08:52
TRACK 11 AUDIO
TITLE "Purple Haze"
PERFORMER "Toad"
INDEX 00 57:53:45
INDEX 01 57:55:52

_________________


Top
 Profile E-mail  
 
 
PostPosted: 23 Sep 2014 
Хиппей (support team)
User avatar
Joined: 30 Jul 2007
Posts: 113651
Lоcаtion: Киев (Kyiv, UA)
Age: 46
Name: Andrey
Toad - 1971 - Toad (reissued Akarma - AK 0831) [flac]

Image
Image Image Image Image

mirror: Narod l M-Cloud

log
Exact Audio Copy V0.99 prebeta 3 from 28. July 2007

Отчёт EAC об извлечении, выполненном 1. февраля 2009, 18:58

Toad / Toad

Дисковод: Optiarc DVD RW AD-5170A Adapter: 0 ID: 0

Режим чтения : Достоверность
Использование точного потока : Да
Отключение кэша аудио : Да
Использование указателей C2 : Нет

Коррекция смещения при чтении : 48
Способность читать области Lead-in и Lead-out : Нет
Заполнение пропущенных сэмплов тишиной : Да
Удаление блоков с тишиной в начале и конце : Нет
При вычислениях CRC использовались нулевые сэмплы : Нет
Интерфейс : Встроенный Win32-интерфейс для Win NT/2000

Выходной формат : Пользовательский кодировщик
Выбранный битрейт : 768 kBit/s
Качество : Высокий
Добавление ID3-тэга : Нет
Утилита сжатия : C:\Program Files\Exact Audio Copy\FLAC\FLAC.EXE
Дополнительные параметры : -6 -V -T "ARTIST=%a" -T "TITLE=%t" -T "ALBUM=%g" -T "DATE=%y" -T "TRACKNUMBER=%n" -T "GENRE=%m" -T "COMMENT=%e" %s -o %d


TOC извлечённого CD

Трек | Старт | Длительность | Начальный сектор | Конечный сектор
---------------------------------------------------------------------
1 | 0:00.00 | 8:32.25 | 0 | 38424
2 | 8:32.25 | 3:28.62 | 38425 | 54086
3 | 12:01.12 | 3:27.43 | 54087 | 69654
4 | 15:28.55 | 6:46.65 | 69655 | 100169
5 | 22:15.45 | 11:58.50 | 100170 | 154069
6 | 34:14.20 | 7:26.27 | 154070 | 187546
7 | 41:40.47 | 2:34.13 | 187547 | 199109
8 | 44:14.60 | 3:31.40 | 199110 | 214974
9 | 47:46.25 | 3:09.15 | 214975 | 229164


Характеристики диапазона извлечения и сообщения об ошибках

Выбранный диапазон

Имя файла E:\Ape+Cue\Toad - Toad.wav

Пиковый уровень 93.0 %
Качество диапазона 100.0 %
CRC копии 7706B73C
Копирование... OK

Ошибок не произошло

Конец отчёта

cue
REM GENRE Progressive Rock
REM DATE 1971
PERFORMER "Toad"
TITLE "Toad"
FILE "Toad - Toad.flac" WAVE
TRACK 01 AUDIO
TITLE "Cotton Wood Hill"
INDEX 01 00:00:00
TRACK 02 AUDIO
TITLE "A Life That Ain't Worth Living"
INDEX 01 08:32:25
TRACK 03 AUDIO
TITLE "Tank"
INDEX 01 12:01:12
TRACK 04 AUDIO
TITLE "They Say I'm Mad"
INDEX 00 15:27:12
INDEX 01 15:28:55
TRACK 05 AUDIO
TITLE "Life Goes On"
INDEX 00 22:14:20
INDEX 01 22:15:45
TRACK 06 AUDIO
TITLE "Pig's Walk"
INDEX 00 34:13:07
INDEX 01 34:14:20
TRACK 07 AUDIO
TITLE "The One I Mean"
INDEX 00 41:39:12
INDEX 01 41:40:47
TRACK 08 AUDIO
TITLE "Stay (bonus)"
INDEX 00 44:13:47
INDEX 01 44:14:60
TRACK 09 AUDIO
TITLE "Animals World (bonus)"
INDEX 00 47:44:70
INDEX 01 47:46:25

_________________


Top
 Profile E-mail  
 
 
PostPosted: 23 Sep 2014 
Хиппей (support team)
User avatar
Joined: 30 Jul 2007
Posts: 113651
Lоcаtion: Киев (Kyiv, UA)
Age: 46
Name: Andrey
Toad - 1971 - Toad (reissued 1991 Aurophon) [flac]

Image

mirror: Narod l M-Cloud

log
Exact Audio Copy V0.99 prebeta 5 from 4. May 2009

EAC extraction logfile from 9. December 2010, 12:55

Toad / Toad

Used drive : _NEC DVD_RW ND-3550A Adapter: 1 ID: 0

Read mode : Secure
Utilize accurate stream : Yes
Defeat audio cache : Yes
Make use of C2 pointers : No

Read offset correction : 48
Overread into Lead-In and Lead-Out : No
Fill up missing offset samples with silence : Yes
Delete leading and trailing silent blocks : No
Null samples used in CRC calculations : Yes
Used interface : Native Win32 interface for Win NT & 2000

Used output format : User Defined Encoder
Selected bitrate : 1024 kBit/s
Quality : High
Add ID3 tag : No
Command line compressor : C:\Program Files\Exact Audio Copy\Flac\flac.exe
Additional command line options : -8 -V %s


TOC of the extracted CD

Track | Start | Length | Start sector | End sector
---------------------------------------------------------
1 | 0:00.00 | 8:36.00 | 0 | 38699
2 | 8:36.00 | 3:29.00 | 38700 | 54374
3 | 12:05.00 | 3:28.00 | 54375 | 69974
4 | 15:33.00 | 6:47.00 | 69975 | 100499
5 | 22:20.00 | 11:58.00 | 100500 | 154349
6 | 34:18.00 | 7:27.00 | 154350 | 187874
7 | 41:45.00 | 2:35.00 | 187875 | 199499
8 | 44:20.00 | 3:30.22 | 199500 | 215271


Range status and errors

Selected range

Filename D:\2\Toad - Toad (1972)\Toad - Toad.wav

Peak level 100.0 %
Range quality 100.0 %
Test CRC 36AB3B54
Copy CRC 36AB3B54
Copy OK

No errors occurred

End of status report

cue
REM GENRE Rock
REM DATE 1972
REM DISCID 610B3608
REM COMMENT "ExactAudioCopy v0.99pb5"
PERFORMER "Toad"
TITLE "Toad"
FILE "Toad - Toad.flac" WAVE
TRACK 01 AUDIO
TITLE "Cottonwood Will"
PERFORMER "Toad"
INDEX 01 00:00:00
TRACK 02 AUDIO
TITLE "A Life Than Ain't Worth Living"
PERFORMER "Toad"
INDEX 01 08:36:00
TRACK 03 AUDIO
TITLE "Tank"
PERFORMER "Toad"
INDEX 01 12:05:00
TRACK 04 AUDIO
TITLE "They Say I'm Mad"
PERFORMER "Toad"
INDEX 01 15:33:00
TRACK 05 AUDIO
TITLE "Life Goes On"
PERFORMER "Toad"
INDEX 01 22:20:00
TRACK 06 AUDIO
TITLE "Pig's Walk"
PERFORMER "Toad"
INDEX 01 34:18:00
TRACK 07 AUDIO
TITLE "The One I Mean"
PERFORMER "Toad"
INDEX 01 41:45:00
TRACK 08 AUDIO
TITLE "Stay"
PERFORMER "Toad"
INDEX 01 44:20:00

_________________


Top
 Profile E-mail  
 
 
PostPosted: 25 Jun 2016 
Хиппей (support team)
User avatar
Joined: 30 Jul 2007
Posts: 113651
Lоcаtion: Киев (Kyiv, UA)
Age: 46
Name: Andrey
Toad - 1974 - Dreams [flac]

Image

mirror: iFolder l Narod l M-Cloud

Начал слушать, но не смог осилить. Лето, утро, кофе, девки, коты, а тута такая нудятина старпёрская... :pardon:

Image

Image

log
Exact Audio Copy V0.99 prebeta 4 from 23. January 2008

Отчёт EAC об извлечении, выполненном 12. апреля 2009, 15:11

Toad / Dreams

Дисковод: _NEC DV-5800E Adapter: 1 ID: 1

Режим чтения : Достоверность
Использование точного потока : Да
Отключение кэша аудио : Да
Использование указателей C2 : Нет

Коррекция смещения при чтении : 48
Способность читать области Lead-in и Lead-out : Нет
Заполнение пропущенных сэмплов тишиной : Да
Удаление блоков с тишиной в начале и конце : Нет
При вычислениях CRC использовались нулевые сэмплы : Да
Интерфейс : Встроенный Win32-интерфейс для Win NT/2000

Выходной формат : Пользовательский кодировщик
Выбранный битрейт : 768 kBit/s
Качество : Высокий
Добавление ID3-тэга : Нет
Утилита сжатия : C:\Program Files\Exact Audio Copy\FLAC\FLAC.EXE
Дополнительные параметры : -6 -V -T "ARTIST=%a" -T "TITLE=%t" -T "ALBUM=%g" -T "DATE=%y" -T "TRACKNUMBER=%n" -T "GENRE=%m" -T "COMMENT=%e" %s -o %d


TOC извлечённого CD

Трек | Старт | Длительность | Начальный сектор | Конечный сектор
---------------------------------------------------------------------
1 | 0:00.00 | 4:20.00 | 0 | 19499
2 | 4:20.00 | 5:44.70 | 19500 | 45369
3 | 10:04.70 | 3:20.16 | 45370 | 60385
4 | 13:25.11 | 5:48.16 | 60386 | 86501
5 | 19:13.27 | 4:23.12 | 86502 | 106238
6 | 23:36.39 | 5:00.62 | 106239 | 128800
7 | 28:37.26 | 4:04.70 | 128801 | 147170
8 | 32:42.21 | 5:18.09 | 147171 | 171029
9 | 38:00.30 | 4:22.13 | 171030 | 190692
10 | 42:22.43 | 3:00.50 | 190693 | 204242


Характеристики диапазона извлечения и сообщения об ошибках

Выбранный диапазон

Имя файла C:\Users\Владимир\Documents\Toad - Dreams.wav

Пиковый уровень 100.0 %
Качество диапазона 99.9 %
CRC копии 35615C5B
Копирование... OK

Ошибок не произошло

Конец отчёта

cue
REM GENRE Rock
REM DATE 1974
REM DISCID 840AA30A
REM COMMENT "ExactAudioCopy v0.99pb4"
PERFORMER "Toad"
TITLE "Dreams"
FILE "Toad - Dreams.flac" WAVE
TRACK 01 AUDIO
TITLE "Keep on Movin'"
PERFORMER "Toad"
INDEX 01 00:00:00
TRACK 02 AUDIO
TITLE "Dreams"
PERFORMER "Toad"
INDEX 01 04:20:00
TRACK 03 AUDIO
TITLE "Let's Get Hi"
PERFORMER "Toad"
INDEX 01 10:04:70
TRACK 04 AUDIO
TITLE "Electric Rider"
PERFORMER "Toad"
INDEX 01 13:25:11
TRACK 05 AUDIO
TITLE "Because You're Not"
PERFORMER "Toad"
INDEX 01 19:13:27
TRACK 06 AUDIO
TITLE "You Know Who I Am"
PERFORMER "Toad"
INDEX 01 23:36:39
TRACK 07 AUDIO
TITLE "Boogin' On A Saturday Night"
PERFORMER "Toad"
INDEX 01 28:37:26
TRACK 08 AUDIO
TITLE "Break Down"
PERFORMER "Toad"
INDEX 01 32:42:21
TRACK 09 AUDIO
TITLE "Purple Haze (Bonus Track)"
PERFORMER "Toad"
INDEX 01 38:00:30
TRACK 10 AUDIO
TITLE "Making You Feel Right (Bonus Track)"
PERFORMER "Toad"
INDEX 01 42:22:43

_________________


Top
 Profile E-mail  
 
 
PostPosted: 26 Jun 2016 
Хиппей (support team)
User avatar
Joined: 30 Jul 2007
Posts: 113651
Lоcаtion: Киев (Kyiv, UA)
Age: 46
Name: Andrey
Toad - 1993 - Hate to Hate [flacs]

Image

mirror: iFolder l Narod l M-Cloud

Неплохой альбом, хорошее звучание не занудная музыка. но весьма разноплановая.
По ходу, это очередной сборник... :vic:
Лень даже где-то проверять, ибо жарко щас, и ваще группа так себе.

log
Exact Audio Copy V0.99 prebeta 5 from 4. May 2009

EAC extraction logfile from 8. February 2011, 20:19

Toad / Hate to Hate

Used drive : PIONEER DVD-RW DVR-216D Adapter: 0 ID: 0

Read mode : Secure
Utilize accurate stream : Yes
Defeat audio cache : Yes
Make use of C2 pointers : No

Read offset correction : 96
Overread into Lead-In and Lead-Out : No
Fill up missing offset samples with silence : Yes
Delete leading and trailing silent blocks : No
Null samples used in CRC calculations : Yes
Used interface : Native Win32 interface for Win NT & 2000
Gap handling : Appended to previous track

Used output format : User Defined Encoder
Selected bitrate : 768 kBit/s
Quality : High
Add ID3 tag : No
Command line compressor : C:\Program Files\Exact Audio Copy\FLAC\FLAC.EXE
Additional command line options : -8 -V -T "ARTIST=%a" -T "TITLE=%t" -T "ALBUM=%g" -T "DATE=%y" -T "TRACKNUMBER=%n" -T "GENRE=%m" -T "COMMENT=%e" %s -o %d


TOC of the extracted CD

Track | Start | Length | Start sector | End sector
---------------------------------------------------------
1 | 0:00.00 | 4:22.70 | 0 | 19719
2 | 4:22.70 | 4:47.25 | 19720 | 41269
3 | 9:10.20 | 4:20.50 | 41270 | 60819
4 | 13:30.70 | 3:01.50 | 60820 | 74444
5 | 16:32.45 | 4:47.45 | 74445 | 96014
6 | 21:20.15 | 3:07.55 | 96015 | 110094
7 | 24:27.70 | 6:09.65 | 110095 | 137834
8 | 30:37.60 | 5:14.60 | 137835 | 161444
9 | 35:52.45 | 4:07.50 | 161445 | 180019
10 | 40:00.20 | 3:58.25 | 180020 | 197894
11 | 43:58.45 | 2:40.37 | 197895 | 209931
12 | 46:39.07 | 2:28.15 | 209932 | 221046


Track 1

Filename E:\TMP\_MEGATASK\Toad - (1993) - Hate to Hate\Toad - 01 - Let's Rock.wav

Pre-gap length 0:00:02.00

Peak level 100.0 %
Track quality 100.0 %
Test CRC 5B439AF9
Copy CRC 5B439AF9
Track not present in AccurateRip database
Copy OK

Track 2

Filename E:\TMP\_MEGATASK\Toad - (1993) - Hate to Hate\Toad - 02 - Down to the Bone.wav

Pre-gap length 0:00:02.33

Peak level 100.0 %
Track quality 100.0 %
Test CRC 79B46BC7
Copy CRC 79B46BC7
Track not present in AccurateRip database
Copy OK

Track 3

Filename E:\TMP\_MEGATASK\Toad - (1993) - Hate to Hate\Toad - 03 - Stop this Crime.wav

Pre-gap length 0:00:02.20

Peak level 100.0 %
Track quality 99.9 %
Test CRC CD0B9DF9
Copy CRC CD0B9DF9
Track not present in AccurateRip database
Copy OK

Track 4

Filename E:\TMP\_MEGATASK\Toad - (1993) - Hate to Hate\Toad - 04 - Hate to Hate.wav

Pre-gap length 0:00:02.20

Peak level 100.0 %
Track quality 99.9 %
Test CRC 2998F802
Copy CRC 2998F802
Track not present in AccurateRip database
Copy OK

Track 5

Filename E:\TMP\_MEGATASK\Toad - (1993) - Hate to Hate\Toad - 05 - I Don't Wanna Lose You.wav

Pre-gap length 0:00:02.25

Peak level 100.0 %
Track quality 100.0 %
Test CRC 7BE6D02B
Copy CRC 7BE6D02B
Track not present in AccurateRip database
Copy OK

Track 6

Filename E:\TMP\_MEGATASK\Toad - (1993) - Hate to Hate\Toad - 06 - Money Don't Matter.wav

Pre-gap length 0:00:02.10

Peak level 99.9 %
Track quality 100.0 %
Test CRC 6D130C18
Copy CRC 6D130C18
Track not present in AccurateRip database
Copy OK

Track 7

Filename E:\TMP\_MEGATASK\Toad - (1993) - Hate to Hate\Toad - 07 - It Took You Just One Minute.wav

Pre-gap length 0:00:02.38

Peak level 100.0 %
Track quality 100.0 %
Test CRC 17C05829
Copy CRC 17C05829
Track not present in AccurateRip database
Copy OK

Track 8

Filename E:\TMP\_MEGATASK\Toad - (1993) - Hate to Hate\Toad - 08 - The Game She Plays.wav

Pre-gap length 0:00:02.38

Peak level 100.0 %
Track quality 99.9 %
Test CRC 3D8BAC6B
Copy CRC 3D8BAC6B
Track not present in AccurateRip database
Copy OK

Track 9

Filename E:\TMP\_MEGATASK\Toad - (1993) - Hate to Hate\Toad - 09 - War Is Dumb.wav

Pre-gap length 0:00:02.18

Peak level 100.0 %
Track quality 100.0 %
Test CRC 6D8C5128
Copy CRC 6D8C5128
Track not present in AccurateRip database
Copy OK

Track 10

Filename E:\TMP\_MEGATASK\Toad - (1993) - Hate to Hate\Toad - 10 - Julia's Got the Blues.wav

Pre-gap length 0:00:02.30

Peak level 100.0 %
Track quality 100.0 %
Test CRC 87DFFF64
Copy CRC 87DFFF64
Track not present in AccurateRip database
Copy OK

Track 11

Filename E:\TMP\_MEGATASK\Toad - (1993) - Hate to Hate\Toad - 11 - Help Me Babe.wav

Pre-gap length 0:00:02.33

Peak level 100.0 %
Track quality 100.0 %
Test CRC 4984B3B3
Copy CRC 4984B3B3
Track not present in AccurateRip database
Copy OK

Track 12

Filename E:\TMP\_MEGATASK\Toad - (1993) - Hate to Hate\Toad - 12 - Ain't Nobody Gonna Worry.wav

Pre-gap length 0:00:02.30

Peak level 100.0 %
Track quality 100.0 %
Test CRC 27D8DF10
Copy CRC 27D8DF10
Track not present in AccurateRip database
Copy OK


None of the tracks are present in the AccurateRip database

No errors occurred

End of status report

cue
REM GENRE Rock
REM DATE 1993
REM DISCID 9C0B830C
REM COMMENT "ExactAudioCopy v0.99pb5"
PERFORMER "Toad"
TITLE "Hate to Hate"
FILE "Toad - 01 - Let's Rock.wav" WAVE
TRACK 01 AUDIO
TITLE "Let's Rock"
PERFORMER "Toad"
INDEX 01 00:00:00
TRACK 02 AUDIO
TITLE "Down to the Bone"
PERFORMER "Toad"
INDEX 00 04:20:37
FILE "Toad - 02 - Down to the Bone.wav" WAVE
INDEX 01 00:00:00
TRACK 03 AUDIO
TITLE "Stop this Crime"
PERFORMER "Toad"
INDEX 00 04:45:05
FILE "Toad - 03 - Stop this Crime.wav" WAVE
INDEX 01 00:00:00
TRACK 04 AUDIO
TITLE "Hate to Hate"
PERFORMER "Toad"
INDEX 00 04:18:30
FILE "Toad - 04 - Hate to Hate.wav" WAVE
INDEX 01 00:00:00
TRACK 05 AUDIO
TITLE "I Don't Wanna Lose You"
PERFORMER "Toad"
INDEX 00 02:59:25
FILE "Toad - 05 - I Don't Wanna Lose You.wav" WAVE
INDEX 01 00:00:00
TRACK 06 AUDIO
TITLE "Money Don't Matter"
PERFORMER "Toad"
INDEX 00 04:45:35
FILE "Toad - 06 - Money Don't Matter.wav" WAVE
INDEX 01 00:00:00
TRACK 07 AUDIO
TITLE "It Took You Just One Minute"
PERFORMER "Toad"
INDEX 00 03:05:17
FILE "Toad - 07 - It Took You Just One Minute.wav" WAVE
INDEX 01 00:00:00
TRACK 08 AUDIO
TITLE "The Game She Plays"
PERFORMER "Toad"
INDEX 00 06:07:27
FILE "Toad - 08 - The Game She Plays.wav" WAVE
INDEX 01 00:00:00
TRACK 09 AUDIO
TITLE "War Is Dumb"
PERFORMER "Toad"
INDEX 00 05:12:42
FILE "Toad - 09 - War Is Dumb.wav" WAVE
INDEX 01 00:00:00
TRACK 10 AUDIO
TITLE "Julia's Got the Blues"
PERFORMER "Toad"
INDEX 00 04:05:20
FILE "Toad - 10 - Julia's Got the Blues.wav" WAVE
INDEX 01 00:00:00
TRACK 11 AUDIO
TITLE "Help Me Babe"
PERFORMER "Toad"
INDEX 00 03:55:67
FILE "Toad - 11 - Help Me Babe.wav" WAVE
INDEX 01 00:00:00
TRACK 12 AUDIO
TITLE "Ain't Nobody Gonna Worry"
PERFORMER "Toad"
INDEX 00 02:38:07
FILE "Toad - 12 - Ain't Nobody Gonna Worry.wav" WAVE
INDEX 01 00:00:00

_________________


Top
 Profile E-mail  
 
 
PostPosted: 26 Jun 2016 
Хиппей (support team)
User avatar
Joined: 30 Jul 2007
Posts: 113651
Lоcаtion: Киев (Kyiv, UA)
Age: 46
Name: Andrey
Toad - 1972 - Tomorrow Blue [flac]

Image Image Image Image

mirror: iFolder l Narod l M-Cloud

Нафталин и дохлые прогрессивные мухи... :svin:

Image Image Image Image

log
Exact Audio Copy V0.99 prebeta 3 from 28. July 2007

Отчёт EAC об извлечении, выполненном 2. февраля 2009, 0:21

Toad / Tomorrow Blue

Дисковод: Optiarc DVD RW AD-5170A Adapter: 0 ID: 0

Режим чтения : Достоверность
Использование точного потока : Да
Отключение кэша аудио : Да
Использование указателей C2 : Нет

Коррекция смещения при чтении : 48
Способность читать области Lead-in и Lead-out : Нет
Заполнение пропущенных сэмплов тишиной : Да
Удаление блоков с тишиной в начале и конце : Нет
При вычислениях CRC использовались нулевые сэмплы : Нет
Интерфейс : Встроенный Win32-интерфейс для Win NT/2000

Выходной формат : Пользовательский кодировщик
Выбранный битрейт : 768 kBit/s
Качество : Высокий
Добавление ID3-тэга : Нет
Утилита сжатия : C:\Program Files\Exact Audio Copy\FLAC\FLAC.EXE
Дополнительные параметры : -6 -V -T "ARTIST=%a" -T "TITLE=%t" -T "ALBUM=%g" -T "DATE=%y" -T "TRACKNUMBER=%n" -T "GENRE=%m" -T "COMMENT=%e" %s -o %d


TOC извлечённого CD

Трек | Старт | Длительность | Начальный сектор | Конечный сектор
---------------------------------------------------------------------
1 | 0:00.00 | 6:27.45 | 0 | 29069
2 | 6:27.45 | 9:09.42 | 29070 | 70286
3 | 15:37.12 | 5:21.73 | 70287 | 94434
4 | 20:59.10 | 5:40.55 | 94435 | 119989
5 | 26:39.65 | 3:37.67 | 119990 | 136331
6 | 30:17.57 | 12:21.48 | 136332 | 191954
7 | 42:39.30 | 0:48.42 | 191955 | 195596
8 | 43:27.72 | 6:47.35 | 195597 | 226156
9 | 50:15.32 | 3:27.20 | 226157 | 241701
10 | 53:42.52 | 3:57.20 | 241702 | 259496


Характеристики диапазона извлечения и сообщения об ошибках

Выбранный диапазон

Имя файла E:\Ape+Cue\Toad - Tomorrow Blue.wav

Пиковый уровень 99.9 %
Качество диапазона 100.0 %
CRC копии E36C0794
Копирование... OK

Ошибок не произошло

Конец отчёта

cue
REM GENRE "Progressive Rock"
REM DATE 1972
REM DISCID 850D830A
REM COMMENT "ExactAudioCopy v0.99pb3"
PERFORMER "Toad"
TITLE "Tomorrow Blue"
FILE "Toad - Tomorrow Blue.flac" WAVE
TRACK 01 AUDIO
TITLE "Thoughts"
PERFORMER "Toad"
INDEX 01 00:00:00
TRACK 02 AUDIO
TITLE "Tomorrow Blue"
PERFORMER "Toad"
INDEX 01 06:27:45
TRACK 03 AUDIO
TITLE "Blind Chapman's Tales"
PERFORMER "Toad"
INDEX 01 15:37:12
TRACK 04 AUDIO
TITLE "Vampires"
PERFORMER "Toad"
INDEX 01 20:59:10
TRACK 05 AUDIO
TITLE "No Need"
PERFORMER "Toad"
INDEX 01 26:39:65
TRACK 06 AUDIO
TITLE "Change In Time"
PERFORMER "Toad"
INDEX 01 30:17:57
TRACK 07 AUDIO
TITLE "Three O Clock In The Morning"
PERFORMER "Toad"
INDEX 01 42:39:30
TRACK 08 AUDIO
TITLE "Fly"
PERFORMER "Toad"
INDEX 01 43:27:72
TRACK 09 AUDIO
TITLE "I Saw Her Standing There"
PERFORMER "Toad"
INDEX 01 50:15:32
TRACK 10 AUDIO
TITLE "Green Ham"
PERFORMER "Toad"
INDEX 01 53:42:52

_________________


Top
 Profile E-mail  
 
Display posts from previous:  Sort by  
Post new topic Reply to topic  [ 35 posts ]  Go to page Previous  1, 2

All times are UTC + 3 hours


Who is online

Users browsing this forum: No registered users and 2 guests


You cannot post new topics in this forum
You cannot reply to topics in this forum
You cannot edit your posts in this forum
You cannot delete your posts in this forum
You cannot post attachments in this forum

Search for:
Яндекс.Метрика
Powered by phpBB © 2000, 2002, 2005, 2007 phpBB Group