\m/ 80's metal \m/

Информационно-аналитический форум "80 см пыли" (In Search We Trust) "У нас никто никуда не спешит"
Me For You - http://me-4u.com
It is currently 20 Jul 2019

All times are UTC + 3 hours

Spoiler
Chat - temporary registration for foreign users (please leave your application here)







Post new topic Reply to topic  [ 35 posts ]  Go to page 1, 2  Next
Author Message
 
PostPosted: 03 Sep 2014 
Почётный металлург
User avatar
Joined: 15 Sep 2007
Posts: 4358
Lоcаtion: Хабаровск
Age: 59
Name: чуть выше
В поисках лососевый Toad 1994 года. Был когда-то в сетях, но ... уже нет. Может кто-то успел, поделитесь пжлста

Альбом: Behind The Wheels
Жанр: Hard Rock
Год выпуска диска: 2004 Italy (если будут другие издания, пускай)
Битрейт аудио: lossless

Image

Трэклист:
1 Rockin' & Lovin' 3:51
2 Slow Down 2:53
3 Behind The Wheels 3:37
4 I Ain't Got Time 3:17
5 Everybody's Baby 4:14
6 Makin' Groupies Happy 2:12
7 Tonight 4:07
8 Baby You 3:25
9 Makin' You Feel Right 3:01
10 Music 3:46
11 I Got Enough Of You 2:40
12 Purple Haze 4:21
13 Usin' My Life 3:07
14 Gimme Little Money 2:27

Продолжительность: 47 min

_________________
Коль будешь людей ты ослами честить,
тебе человеком меж них не прослыть!
(Саади, персидский поэт, 13в.)


Top
 Profile  
 
 
PostPosted: 04 Sep 2014 
Хиппей (support team)
User avatar
Joined: 30 Jul 2007
Posts: 113561
Lоcаtion: Киев (Kyiv, UA)
Age: 46
Name: Andrey
http://rutracker.org/forum/viewtopic.php?t=1509438

Ну вот подождём пока, ага.
Никто ведь не спешит? :dance:

зы. Ну и на БацБаце и Галаксях попросил тоже апнуть.

http://lossless-galaxy.ru/inostr/inostr_hardrock/37641-toad-behind-the-wheels-2004.html
http://batzbatz.com/hardrock/49410-toad-dreams-1974.html

_________________


Top
 Profile E-mail  
 
 
PostPosted: 05 Sep 2014 
Почётный металлург
User avatar
Joined: 15 Sep 2007
Posts: 4358
Lоcаtion: Хабаровск
Age: 59
Name: чуть выше
по моим лаптям идешь..... молчат все молча, и не одну неделю.. :( :vic: А то и писал "Может кто успел"

_________________
Коль будешь людей ты ослами честить,
тебе человеком меж них не прослыть!
(Саади, персидский поэт, 13в.)


Top
 Profile  
 
 
PostPosted: 05 Sep 2014 
Хиппей (support team)
User avatar
Joined: 30 Jul 2007
Posts: 113561
Lоcаtion: Киев (Kyiv, UA)
Age: 46
Name: Andrey
Sergey wrote:
молчат все молча, и не одну неделю..

http://rutracker.org/forum/viewtopic.php?t=1509438
Quote:
Полный источник: не было 7 дней

Ну Серёж, как максимум пока одну :pardon:

_________________


Top
 Profile E-mail  
 
 
PostPosted: 05 Sep 2014 
Хиппей (support team)
User avatar
Joined: 30 Jul 2007
Posts: 113561
Lоcаtion: Киев (Kyiv, UA)
Age: 46
Name: Andrey
Вышел сид на раздачу :dance:

_________________


Top
 Profile E-mail  
 
 
PostPosted: 06 Sep 2014 
Хиппей (support team)
User avatar
Joined: 30 Jul 2007
Posts: 113561
Lоcаtion: Киев (Kyiv, UA)
Age: 46
Name: Andrey
Ссылка будет через часик или уже утром.
Возможно от Юрки (Уррри), он тоже скачал :dance:

А пока пробуем ответить на вопрос - с чего вдруг как только я попросил перешарить, так сразу сид появился? :oops: А сейчас их уже все 11 :pardon:

Image

_________________


Top
 Profile E-mail  
 
 
PostPosted: 06 Sep 2014 
Хиппей (support team)
User avatar
Joined: 30 Jul 2007
Posts: 113561
Lоcаtion: Киев (Kyiv, UA)
Age: 46
Name: Andrey
Toad - 2004 - Behind The Wheels [flac]

Image
Image
Image

mirror: M-Cloud l Narod

log
Exact Audio Copy V0.99 prebeta 3 from 28. July 2007

Отчёт EAC об извлечении, выполненном 2. февраля 2009, 16:08

Toad / Behind The Wheels

Дисковод: Optiarc DVD RW AD-5170A Adapter: 0 ID: 0

Режим чтения : Достоверность
Использование точного потока : Да
Отключение кэша аудио : Да
Использование указателей C2 : Нет

Коррекция смещения при чтении : 48
Способность читать области Lead-in и Lead-out : Нет
Заполнение пропущенных сэмплов тишиной : Да
Удаление блоков с тишиной в начале и конце : Нет
При вычислениях CRC использовались нулевые сэмплы : Нет
Интерфейс : Встроенный Win32-интерфейс для Win NT/2000

Выходной формат : Пользовательский кодировщик
Выбранный битрейт : 768 kBit/s
Качество : Высокий
Добавление ID3-тэга : Нет
Утилита сжатия : C:\Program Files\Exact Audio Copy\FLAC\FLAC.EXE
Дополнительные параметры : -6 -V -T "ARTIST=%a" -T "TITLE=%t" -T "ALBUM=%g" -T "DATE=%y" -T "TRACKNUMBER=%n" -T "GENRE=%m" -T "COMMENT=%e" %s -o %d


TOC извлечённого CD

Трек | Старт | Длительность | Начальный сектор | Конечный сектор
---------------------------------------------------------------------
1 | 0:00.00 | 3:51.00 | 0 | 17324
2 | 3:51.00 | 2:53.00 | 17325 | 30299
3 | 6:44.00 | 3:37.00 | 30300 | 46574
4 | 10:21.00 | 3:17.00 | 46575 | 61349
5 | 13:38.00 | 4:14.00 | 61350 | 80399
6 | 17:52.00 | 2:12.00 | 80400 | 90299
7 | 20:04.00 | 4:07.00 | 90300 | 108824
8 | 24:11.00 | 3:25.00 | 108825 | 124199
9 | 27:36.00 | 3:01.00 | 124200 | 137774
10 | 30:37.00 | 3:46.00 | 137775 | 154724
11 | 34:23.00 | 2:40.00 | 154725 | 166724
12 | 37:03.00 | 4:21.00 | 166725 | 186299
13 | 41:24.00 | 3:07.00 | 186300 | 200324
14 | 44:31.00 | 2:27.25 | 200325 | 211374


Характеристики диапазона извлечения и сообщения об ошибках

Выбранный диапазон

Имя файла E:\Ape+Cue\Toad - Behind The Wheels.wav

Пиковый уровень 100.0 %
Качество диапазона 100.0 %
CRC копии 3F667E7B
Копирование... OK

Ошибок не произошло

Конец отчёта

cue
REM GENRE Hard Rock
REM DATE 2004
REM DISCID B20B020E
REM COMMENT ExactAudioCopy v0.99pb3
PERFORMER "Toad"
TITLE "Behind The Wheels"
FILE "Toad - Behind The Wheels.flac" WAVE
TRACK 01 AUDIO
TITLE "Rockin' & Lovin'"
INDEX 01 00:00:00
TRACK 02 AUDIO
TITLE "Slow Down"
INDEX 01 03:51:00
TRACK 03 AUDIO
TITLE "Behind The Wheels"
INDEX 01 06:44:00
TRACK 04 AUDIO
TITLE "I Ain't Got Time"
INDEX 01 10:21:00
TRACK 05 AUDIO
TITLE "Everybody's Baby"
INDEX 01 13:38:00
TRACK 06 AUDIO
TITLE "Makin' Groupies Happy"
INDEX 01 17:52:00
TRACK 07 AUDIO
TITLE "Tonight"
INDEX 01 20:04:00
TRACK 08 AUDIO
TITLE "Baby You"
INDEX 01 24:11:00
TRACK 09 AUDIO
TITLE "Makin' You Feel Right"
INDEX 01 27:36:00
TRACK 10 AUDIO
TITLE "Music"
INDEX 01 30:37:00
TRACK 11 AUDIO
TITLE "I Got Enough Of You"
INDEX 01 34:23:00
TRACK 12 AUDIO
TITLE "Purple Haze"
INDEX 01 37:03:00
TRACK 13 AUDIO
TITLE "Usin' My Life"
INDEX 01 41:24:00
TRACK 14 AUDIO
TITLE "Gimme Little Money"
INDEX 01 44:31:00

_________________


Top
 Profile E-mail  
 
 
PostPosted: 06 Sep 2014 
Я набрал 1000 сообщений!
Joined: 24 Oct 2009
Posts: 2233
Lоcаtion: Оренбург
Age: 55
Name: Юра
Задержался я малость...

_________________
:dash: I am happy!


Top
 Profile E-mail  
 
 
PostPosted: 06 Sep 2014 
Хиппей (support team)
User avatar
Joined: 30 Jul 2007
Posts: 113561
Lоcаtion: Киев (Kyiv, UA)
Age: 46
Name: Andrey
Пробки? :bodun:

_________________


Top
 Profile E-mail  
 
 
PostPosted: 07 Sep 2014 
Хиппей (support team)
User avatar
Joined: 30 Jul 2007
Posts: 113561
Lоcаtion: Киев (Kyiv, UA)
Age: 46
Name: Andrey
Слушал альбом много и долго, пока засыпал, затем во сне, затем опосля. В общем, среднестатистический хард-рок на рокенролльной и блюзовой основе (группа родом из 70-х).
Первая часть альбома даже не то что неплоха, а вовсе весьма даже местами хороша, ровна, приятна, а вот вторую можно смело запихнуть куда поглубже или сжечь :dance:

5/10

Вот так вот я тоже взял и разделил оценку пополам :cry:

_________________


Top
 Profile E-mail  
 
 
PostPosted: 08 Sep 2014 
Почётный металлург
User avatar
Joined: 15 Sep 2007
Posts: 4358
Lоcаtion: Хабаровск
Age: 59
Name: чуть выше
Scatterbrain wrote:
как максимум пока одну

Андрюш, я по профилю судил. Сам посмотри:
"Профиль пользователя: papashura
................................
Последний визит: 2013-01-12"

Здесь я тогда ничуть не удивился, ведь он и блог свой давно забросил.

А "спасибо" походу кому-то другому надо отправить, кто посидировал. Ну и тебе конечно за попытку утереть мне нос, но и заодно помочь в проблеме. За второе особая благодарность!

Scatterbrain wrote:
Первая часть альбома даже не то что неплоха, а вовсе весьма даже местами хороша, ровна, приятна, а вот вторую можно смело запихнуть куда поглубже или сжечь

Понимаю тебя. На мой взгляд из 90-х 93-й получше. Но мои кровь, пот и слезы - это 70-е. Там для меня всё!

_________________
Коль будешь людей ты ослами честить,
тебе человеком меж них не прослыть!
(Саади, персидский поэт, 13в.)


Top
 Profile  
 
 
PostPosted: 08 Sep 2014 
Хиппей (support team)
User avatar
Joined: 30 Jul 2007
Posts: 113561
Lоcаtion: Киев (Kyiv, UA)
Age: 46
Name: Andrey
Sergey wrote:
Последний визит: 2013-01-12"

Серёж, поставь на этом форуме или на том у себя в профиле галку "заходить скрытым" и увидишь примерно такое же.
Sergey wrote:
А "спасибо" походу кому-то другому надо отправить, кто посидировал.

Открою "тайну", автор раздачи и сидировал :al:

Sergey wrote:
На мой взгляд из 90-х 93-й получше.

То есть, этот альбом реально был записан в 90-х? :shok:

_________________


Top
 Profile E-mail  
 
 
PostPosted: 09 Sep 2014 
Почётный металлург
User avatar
Joined: 15 Sep 2007
Posts: 4358
Lоcаtion: Хабаровск
Age: 59
Name: чуть выше
Scatterbrain wrote:
этот альбом реально был записан в 90-х

не вдовался в такие подробности/ В http://www.discogs.com/Toad-Stop-This-C ... se/4877294 написано, что в 93-м

_________________
Коль будешь людей ты ослами честить,
тебе человеком меж них не прослыть!
(Саади, персидский поэт, 13в.)


Top
 Profile  
 
 
PostPosted: 09 Sep 2014 
Хиппей (support team)
User avatar
Joined: 30 Jul 2007
Posts: 113561
Lоcаtion: Киев (Kyiv, UA)
Age: 46
Name: Andrey
Sergey wrote:
не вдовался в такие подробности

А вот и зря. Первая часть альбома да, в 93-м сочинена и записана, а вот вторая взята из 70-х. Потому и такое различие в стилистике :pardon:

_________________


Top
 Profile E-mail  
 
 
PostPosted: 09 Sep 2014 
Почётный металлург
User avatar
Joined: 15 Sep 2007
Posts: 4358
Lоcаtion: Хабаровск
Age: 59
Name: чуть выше
Scatterbrain wrote:
Первая часть альбома да, в 93-м сочинена и записана, а вот вторая взята из 70-х. Потому и такое различие в стилистике

Я кажется разобрался, о чем ты. Поправь, если я не прав.
Ты про тот СД, который я тут заявлял Behind The Wheels, и который ты разделил 50 на 50 в отношении какая половина больше понравилась. Так там типа сборник из вещей Toad, которые не издавались. Таки да, там есть вещи и 70-х годов.
Но я-то про 93-й писал "Hate to Hate", или "Stop This Crime" Акармовский с одним добавочным треком и давал ссылку. Уж там-то точно запись 93г. Там даже звук современный.

Scatterbrain wrote:
Серёж, поставь на этом форуме или на том у себя в профиле галку "заходить скрытым" и увидишь примерно такое же.

Андре, его конечно дело, но мне не понятно, какой смысл сначала открыто заходить, а потом скрываться. Стал бы я беспокоиться, видит кто-нибудь меня на трекере или нет. Я понимаю, когда люди возраст скрывают, или свою страну или город. Да и то, это всё при регистрации походу делается.

ps Чот не нашел я на трекере в своем профиле такой галки "заходить скрытым". Хотел скрыться, а не дали. Сволочюги! :dash: ;)

_________________
Коль будешь людей ты ослами честить,
тебе человеком меж них не прослыть!
(Саади, персидский поэт, 13в.)


Top
 Profile  
 
 
PostPosted: 09 Sep 2014 
Хиппей (support team)
User avatar
Joined: 30 Jul 2007
Posts: 113561
Lоcаtion: Киев (Kyiv, UA)
Age: 46
Name: Andrey
Sergey wrote:
Таки да, там есть вещи и 70-х годов.

Ага.
Sergey wrote:
Но я-то про 93-й писал "Hate to Hate", или "Stop This Crime" Акармовский с одним добавочным треком и давал ссылку. Уж там-то точно запись 93г. Там даже звук современный.

Ааа, значит я тебя не понял сразу :vic:
Планирую все альбомы группы в лосиках качнуть. Явно моя тема :dance:
Sergey wrote:
Андре, его конечно дело, но мне не понятно, какой смысл сначала открыто заходить, а потом скрываться.

Не знаю. Я вот сам здесь скрыто захожу. Привычка старая :pardon:
Ща гляну как там в настройках на Рутракере.

_________________


Top
 Profile E-mail  
 
 
PostPosted: 09 Sep 2014 
Хиппей (support team)
User avatar
Joined: 30 Jul 2007
Posts: 113561
Lоcаtion: Киев (Kyiv, UA)
Age: 46
Name: Andrey
http://rutracker.org/forum/profile.php?mode=editprofile
Вот это поле там влияет на отображение визитов на форум:
Quote:
Скрывать список текущих закачек в профиле:

_________________


Top
 Profile E-mail  
 
 
PostPosted: 09 Sep 2014 
Почётный металлург
User avatar
Joined: 15 Sep 2007
Posts: 4358
Lоcаtion: Хабаровск
Age: 59
Name: чуть выше
Scatterbrain wrote:
Планирую все альбомы группы в лосиках качнуть. Явно моя тема

Не пожалеешь. Одна из моих фаворных групп.

_________________
Коль будешь людей ты ослами честить,
тебе человеком меж них не прослыть!
(Саади, персидский поэт, 13в.)


Top
 Profile  
 
 
PostPosted: 09 Sep 2014 
Хиппей (support team)
User avatar
Joined: 30 Jul 2007
Posts: 113561
Lоcаtion: Киев (Kyiv, UA)
Age: 46
Name: Andrey
Верю :meloman:

_________________


Top
 Profile E-mail  
 
 
PostPosted: 14 Sep 2014 
Хиппей (support team)
User avatar
Joined: 30 Jul 2007
Posts: 113561
Lоcаtion: Киев (Kyiv, UA)
Age: 46
Name: Andrey
Toad - 1972 - Open Fire - Live In Basel [flacs]

Image Image Image

Image Image Image

Image Image Image

Image Image Image


mirror: Narod l M-Cloud

Живой и почти полностью экспериментально-инструметальный сайкоделик-роковый альбом.
Естественно, никаких восторгов не вызвал :pardon:

log
Exact Audio Copy V1.0 beta 3 from 29. August 2011

EAC extraction logfile from 18. November 2012, 1:06

Toad / Open Fire - Live In Basel 1972

Used drive : ATAPI iHAS324 Y Adapter: 4 ID: 0

Read mode : Secure
Utilize accurate stream : Yes
Defeat audio cache : Yes
Make use of C2 pointers : No

Read offset correction : 48
Overread into Lead-In and Lead-Out : No
Fill up missing offset samples with silence : Yes
Delete leading and trailing silent blocks : No
Null samples used in CRC calculations : Yes
Used interface : Native Win32 interface for Win NT & 2000
Gap handling : Appended to previous track

Used output format : User Defined Encoder
Selected bitrate : 896 kBit/s
Quality : High
Add ID3 tag : No
Command line compressor : C:\Program Files\Exact Audio Copy\flac.exe
Additional command line options : -8 -V -T "ARTIST=%artist%" -T "TITLE=%title%" -T "ALBUM=%albumtitle%" -T "DATE=%year%" -T "TRACKNUMBER=%tracknr%" -T "GENRE=%genre%" -T "PERFORMER=%albuminterpret%" -T "COMPOSER=%composer%" %haslyrics%--tag-from-file=LYRICS="%lyricsfile%"%haslyrics% -T "ALBUMARTIST=%albumartist%" -T "DISCNUMBER=%cdnumber%" -T "TOTALDISCS=%totalcds%" -T "TOTALTRACKS=%numtracks%" -T "COMMENT=%comment%" %source% -o %dest%


TOC of the extracted CD

Track | Start | Length | Start sector | End sector
---------------------------------------------------------
1 | 0:00.00 | 14:51.50 | 0 | 66874
2 | 14:51.50 | 6:57.24 | 66875 | 98173
3 | 21:48.74 | 5:42.22 | 98174 | 123845
4 | 27:31.21 | 4:43.48 | 123846 | 145118
5 | 32:14.69 | 7:42.27 | 145119 | 179795
6 | 39:57.21 | 11:33.69 | 179796 | 231839


Track 1

Filename C:\EAC\01 - Tomorrow Blue.wav

Pre-gap length 0:00:02.00

Peak level 95.6 %
Extraction speed 3.0 X
Track quality 100.0 %
Test CRC 3FFB41D8
Copy CRC 3FFB41D8
Accurately ripped (confidence 1) [77C3B1FE] (AR v1)
Copy OK

Track 2

Filename C:\EAC\02 - Thoughts.wav

Peak level 92.2 %
Extraction speed 3.3 X
Track quality 99.9 %
Test CRC A5246F4F
Copy CRC A5246F4F
Accurately ripped (confidence 1) [19A1CDFD] (AR v1)
Copy OK

Track 3

Filename C:\EAC\03 - Blues.wav

Peak level 91.2 %
Extraction speed 3.5 X
Track quality 99.9 %
Test CRC 59212EF7
Copy CRC 59212EF7
Accurately ripped (confidence 1) [8A8FCD6C] (AR v1)
Copy OK

Track 4

Filename C:\EAC\04 - Pig's Walk.wav

Peak level 90.5 %
Extraction speed 4.0 X
Track quality 100.0 %
Test CRC 2AA82173
Copy CRC 2AA82173
Accurately ripped (confidence 1) [EDF2BCEB] (AR v1)
Copy OK

Track 5

Filename C:\EAC\05 - Red House.wav

Peak level 89.3 %
Extraction speed 4.4 X
Track quality 100.0 %
Test CRC A49B349A
Copy CRC A49B349A
Accurately ripped (confidence 1) [9348C471] (AR v1)
Copy OK

Track 6

Filename C:\EAC\06 - Who Knows.wav

Peak level 90.0 %
Extraction speed 4.9 X
Track quality 100.0 %
Test CRC 55C8142C
Copy CRC 55C8142C
Accurately ripped (confidence 1) [2A8272C5] (AR v1)
Copy OK


All tracks accurately ripped

No errors occurred

End of status report

==== Log checksum FD810DDD25FBA6BC705606660ED577C107ACE3C203B33BE65C0F4D1F188F7BBF ====

------------------------------------------------------------

Exact Audio Copy V1.0 beta 3 from 29. August 2011

EAC extraction logfile from 18. November 2012, 1:06

Toad / Open Fire - Live In Basel 1972

Used drive : ATAPI iHAS324 Y Adapter: 4 ID: 0

Read mode : Secure
Utilize accurate stream : Yes
Defeat audio cache : Yes
Make use of C2 pointers : No

Read offset correction : 48
Overread into Lead-In and Lead-Out : No
Fill up missing offset samples with silence : Yes
Delete leading and trailing silent blocks : No
Null samples used in CRC calculations : Yes
Used interface : Native Win32 interface for Win NT & 2000
Gap handling : Appended to previous track

Used output format : User Defined Encoder
Selected bitrate : 896 kBit/s
Quality : High
Add ID3 tag : No
Command line compressor : C:\Program Files\Exact Audio Copy\flac.exe
Additional command line options : -8 -V -T "ARTIST=%artist%" -T "TITLE=%title%" -T "ALBUM=%albumtitle%" -T "DATE=%year%" -T "TRACKNUMBER=%tracknr%" -T "GENRE=%genre%" -T "PERFORMER=%albuminterpret%" -T "COMPOSER=%composer%" %haslyrics%--tag-from-file=LYRICS="%lyricsfile%"%haslyrics% -T "ALBUMARTIST=%albumartist%" -T "DISCNUMBER=%cdnumber%" -T "TOTALDISCS=%totalcds%" -T "TOTALTRACKS=%numtracks%" -T "COMMENT=%comment%" %source% -o %dest%


TOC of the extracted CD

Track | Start | Length | Start sector | End sector
---------------------------------------------------------
1 | 0:00.00 | 14:51.50 | 0 | 66874
2 | 14:51.50 | 6:57.24 | 66875 | 98173
3 | 21:48.74 | 5:42.22 | 98174 | 123845
4 | 27:31.21 | 4:43.48 | 123846 | 145118
5 | 32:14.69 | 7:42.27 | 145119 | 179795
6 | 39:57.21 | 11:33.69 | 179796 | 231839


Track 1

Filename C:\EAC\01 - Tomorrow Blue.wav

Pre-gap length 0:00:02.00

Peak level 95.6 %
Extraction speed 3.0 X
Track quality 100.0 %
Test CRC 3FFB41D8
Copy CRC 3FFB41D8
Accurately ripped (confidence 1) [77C3B1FE] (AR v1)
Copy OK

Track 2

Filename C:\EAC\02 - Thoughts.wav

Peak level 92.2 %
Extraction speed 3.3 X
Track quality 99.9 %
Test CRC A5246F4F
Copy CRC A5246F4F
Accurately ripped (confidence 1) [19A1CDFD] (AR v1)
Copy OK

Track 3

Filename C:\EAC\03 - Blues.wav

Peak level 91.2 %
Extraction speed 3.5 X
Track quality 99.9 %
Test CRC 59212EF7
Copy CRC 59212EF7
Accurately ripped (confidence 1) [8A8FCD6C] (AR v1)
Copy OK

Track 4

Filename C:\EAC\04 - Pig's Walk.wav

Peak level 90.5 %
Extraction speed 4.0 X
Track quality 100.0 %
Test CRC 2AA82173
Copy CRC 2AA82173
Accurately ripped (confidence 1) [EDF2BCEB] (AR v1)
Copy OK

Track 5

Filename C:\EAC\05 - Red House.wav

Peak level 89.3 %
Extraction speed 4.4 X
Track quality 100.0 %
Test CRC A49B349A
Copy CRC A49B349A
Accurately ripped (confidence 1) [9348C471] (AR v1)
Copy OK

Track 6

Filename C:\EAC\06 - Who Knows.wav

Peak level 90.0 %
Extraction speed 4.9 X
Track quality 100.0 %
Test CRC 55C8142C
Copy CRC 55C8142C
Accurately ripped (confidence 1) [2A8272C5] (AR v1)
Copy OK


All tracks accurately ripped

No errors occurred

End of status report

==== Log checksum FD810DDD25FBA6BC705606660ED577C107ACE3C203B33BE65C0F4D1F188F7BBF ====

cue
REM GENRE Rock
REM DATE 1972
REM DISCID 540C1306
REM COMMENT "ExactAudioCopy v1.0b3"
PERFORMER "Toad"
TITLE "Open Fire - Live In Basel 1972"
FILE "01 - Tomorrow Blue.wav" WAVE
TRACK 01 AUDIO
TITLE "Tomorrow Blue"
PERFORMER "Toad"
FLAGS DCP
INDEX 01 00:00:00
FILE "02 - Thoughts.wav" WAVE
TRACK 02 AUDIO
TITLE "Thoughts"
PERFORMER "Toad"
FLAGS DCP
INDEX 01 00:00:00
FILE "03 - Blues.wav" WAVE
TRACK 03 AUDIO
TITLE "Blues"
PERFORMER "Toad"
FLAGS DCP
INDEX 01 00:00:00
FILE "04 - Pig's Walk.wav" WAVE
TRACK 04 AUDIO
TITLE "Pig's Walk"
PERFORMER "Toad"
FLAGS DCP
INDEX 01 00:00:00
FILE "05 - Red House.wav" WAVE
TRACK 05 AUDIO
TITLE "Red House"
PERFORMER "Toad"
FLAGS DCP
INDEX 01 00:00:00
FILE "06 - Who Knows.wav" WAVE
TRACK 06 AUDIO
TITLE "Who Knows"
PERFORMER "Toad"
FLAGS DCP
INDEX 01 00:00:00

_________________


Top
 Profile E-mail  
 
Display posts from previous:  Sort by  
Post new topic Reply to topic  [ 35 posts ]  Go to page 1, 2  Next

All times are UTC + 3 hours


Who is online

Users browsing this forum: No registered users and 2 guests


You cannot post new topics in this forum
You cannot reply to topics in this forum
You cannot edit your posts in this forum
You cannot delete your posts in this forum
You cannot post attachments in this forum

Search for:
Яндекс.Метрика
Powered by phpBB © 2000, 2002, 2005, 2007 phpBB Group