\m/ 80's metal \m/

Информационно-аналитический форум "80 см пыли" (In Search We Trust) "У нас никто никуда не спешит"
Me For You - http://me-4u.com
It is currently 18 Jul 2019

All times are UTC + 3 hours

Spoiler
Chat - temporary registration for foreign users (please leave your application here)







Post new topic Reply to topic  [ 6 posts ] 
Author Message
 
PostPosted: 09 Aug 2014 
Работнечег
User avatar
Joined: 28 Aug 2007
Posts: 5919
Lоcаtion: г. Москва
Age: 30
Name: Дима
Image

Style: Groove Heavy/Thrash Metal
Year: 1996
Label: NSM Records
Country: Austria
Bitrate: Flac + Cue + Log + Covers
Size: 406 Mb

Line-Up:
Mirko Matkovits - Drums
Andreas Kalaschek - Guitars
Christian Unger - Vocals, Bass (Red Sun Project)


Tracklist:
1. Another Day 03:18
2. Irony of Fate 04:30
3. Once Again 06:14
4. Circles 01:53
5. Drowning 03:11
6. Attitude 03:34
7. Neuland 00:48
8. Childish 04:18
9. Haunted 04:42
10. The Principle 03:05
11. The Days 04:28
12. Seconds New World 00:14
13. Humanimal 02:36
14. The Cage 04:30
15. Irony of Fate... Revisited 05:27
16. The Preacher 00:44

LOG
Exact Audio Copy V0.99 prebeta 5 from 4. May 2009

EAC extraction logfile from 4. August 2014, 23:25

Tiananmen / The Irony Of Fate

Used drive : PIONEER DVD-RW DVR-116D Adapter: 0 ID: 0

Read mode : Secure
Utilize accurate stream : Yes
Defeat audio cache : Yes
Make use of C2 pointers : No

Read offset correction : 96
Overread into Lead-In and Lead-Out : No
Fill up missing offset samples with silence : Yes
Delete leading and trailing silent blocks : No
Null samples used in CRC calculations : Yes
Used interface : Native Win32 interface for Win NT & 2000

Used output format : User Defined Encoder
Selected bitrate : 32 kBit/s
Quality : High
Add ID3 tag : No
Command line compressor : C:\Program Files\Exact Audio Copy\Flac\flac.exe
Additional command line options : -6 -V %s


TOC of the extracted CD

Track | Start | Length | Start sector | End sector
---------------------------------------------------------
1 | 0:00.00 | 3:18.07 | 0 | 14856
2 | 3:18.07 | 4:30.50 | 14857 | 35156
3 | 7:48.57 | 6:14.55 | 35157 | 63261
4 | 14:03.37 | 1:53.60 | 63262 | 71796
5 | 15:57.22 | 3:11.40 | 71797 | 86161
6 | 19:08.62 | 3:34.03 | 86162 | 102214
7 | 22:42.65 | 0:48.55 | 102215 | 105869
8 | 23:31.45 | 4:18.20 | 105870 | 125239
9 | 27:49.65 | 4:42.32 | 125240 | 146421
10 | 32:32.22 | 3:05.35 | 146422 | 160331
11 | 35:37.57 | 4:28.35 | 160332 | 180466
12 | 40:06.17 | 0:14.33 | 180467 | 181549
13 | 40:20.50 | 2:36.67 | 181550 | 193316
14 | 42:57.42 | 4:30.10 | 193317 | 213576
15 | 47:27.52 | 0:44.53 | 213577 | 216929
16 | 48:12.30 | 5:27.12 | 216930 | 241466


Range status and errors

Selected range

Filename D:\Музыка\Lossless\Tiananmen - The Irony Of Fate (1996)\Tiananmen - The Irony Of Fate.wav

Peak level 99.5 %
Range quality 100.0 %
Copy CRC BA80C1D5
Copy OK

No errors occurred


AccurateRip summary

Track 1 cannot be verified as accurate (confidence 1) [F0E5F982], AccurateRip returned [47B7F280]
Track 2 cannot be verified as accurate (confidence 1) [6453BF9A], AccurateRip returned [6616C767]
Track 3 cannot be verified as accurate (confidence 1) [7B230576], AccurateRip returned [CAAC612B]
Track 4 cannot be verified as accurate (confidence 1) [4BEE369B], AccurateRip returned [A64D346B]
Track 5 cannot be verified as accurate (confidence 1) [DBA6B5BC], AccurateRip returned [43FE8B7E]
Track 6 cannot be verified as accurate (confidence 1) [A0059963], AccurateRip returned [69407EAD]
Track 7 cannot be verified as accurate (confidence 1) [30FC1483], AccurateRip returned [596BD9E5]
Track 8 cannot be verified as accurate (confidence 1) [CFBBD8E1], AccurateRip returned [F7083755]
Track 9 cannot be verified as accurate (confidence 1) [976507F6], AccurateRip returned [3AD762B3]
Track 10 cannot be verified as accurate (confidence 1) [AA44F69D], AccurateRip returned [F3E4B6DC]
Track 11 cannot be verified as accurate (confidence 1) [3BD9E6CC], AccurateRip returned [8A16450E]
Track 12 cannot be verified as accurate (confidence 1) [46D6D8FB], AccurateRip returned [EA52E4B6]
Track 13 cannot be verified as accurate (confidence 1) [4958A43D], AccurateRip returned [943A46FE]
Track 14 cannot be verified as accurate (confidence 1) [EA88660A], AccurateRip returned [E6FAF1B8]
Track 15 cannot be verified as accurate (confidence 1) [08B4232A], AccurateRip returned [D5B41827]
Track 16 cannot be verified as accurate (confidence 1) [25C742EA], AccurateRip returned [E7C2A09F]

No tracks could be verified as accurate
You may have a different pressing from the one(s) in the database

End of status report

CUE
REM GENRE "Thrash Metal"
REM DATE 1996
REM DISCID E30C9310
REM COMMENT "ExactAudioCopy v0.99pb5"
PERFORMER "Tiananmen"
TITLE "The Irony Of Fate"
FILE "Tiananmen - The Irony Of Fate.flac" WAVE
TRACK 01 AUDIO
TITLE "Another Day"
PERFORMER "Tiananmen"
INDEX 01 00:00:00
TRACK 02 AUDIO
TITLE "Irony Of Fate"
PERFORMER "Tiananmen"
INDEX 00 03:16:70
INDEX 01 03:18:07
TRACK 03 AUDIO
TITLE "Once Again"
PERFORMER "Tiananmen"
INDEX 01 07:48:57
TRACK 04 AUDIO
TITLE "Circles"
PERFORMER "Tiananmen"
INDEX 00 14:01:60
INDEX 01 14:03:37
TRACK 05 AUDIO
TITLE "Drowning"
PERFORMER "Tiananmen"
INDEX 00 15:50:66
INDEX 01 15:57:22
TRACK 06 AUDIO
TITLE "Attitude"
PERFORMER "Tiananmen"
INDEX 00 19:07:45
INDEX 01 19:08:62
TRACK 07 AUDIO
TITLE "Neuland"
PERFORMER "Tiananmen"
INDEX 00 22:41:32
INDEX 01 22:42:65
TRACK 08 AUDIO
TITLE "Childish"
PERFORMER "Tiananmen"
INDEX 01 23:31:45
TRACK 09 AUDIO
TITLE "Haunted"
PERFORMER "Tiananmen"
INDEX 01 27:49:65
TRACK 10 AUDIO
TITLE "The Principle"
PERFORMER "Tiananmen"
INDEX 00 32:29:50
INDEX 01 32:32:22
TRACK 11 AUDIO
TITLE "The Days"
PERFORMER "Tiananmen"
INDEX 01 35:37:57
TRACK 12 AUDIO
TITLE "Seconds New World"
PERFORMER "Tiananmen"
INDEX 01 40:06:17
TRACK 13 AUDIO
TITLE "Humanimal"
PERFORMER "Tiananmen"
INDEX 00 40:18:34
INDEX 01 40:20:50
TRACK 14 AUDIO
TITLE "The Cage"
PERFORMER "Tiananmen"
INDEX 01 42:57:42
TRACK 15 AUDIO
TITLE "Irony Of Fate ... Revisited"
PERFORMER "Tiananmen"
INDEX 01 47:27:52
TRACK 16 AUDIO
TITLE "The Preacher"
PERFORMER "Tiananmen"
INDEX 01 48:12:30


Yadisc



Этот альбом поинтереснее первого, есть неплохие мелодии, в целом неплохое впечатление осталось. Трэша здесь в целом нет, грув наверное да вместе с хэви. Сейчас придет Андрюха, напишет свое мнение по стилю)))


Top
 Profile E-mail  
 
 
PostPosted: 09 Aug 2014 
Хиппей (support team)
User avatar
Joined: 30 Jul 2007
Posts: 113537
Lоcаtion: Киев (Kyiv, UA)
Age: 46
Name: Andrey
:thanx:

mirror: Narod l M-Cloud

Судя по предоставленному трэку с Ютуба, пацаны издеваюца над Метлой :crazy:

_________________


Top
 Profile E-mail  
 
 
PostPosted: 09 Aug 2014 
спирт 100%
User avatar
Joined: 22 Sep 2008
Posts: 4442
Age: 47
Name: Саня
:thanx: Спасибо,Дим!


Top
 Profile  
 
 
PostPosted: 09 Aug 2014 
Прокъмитолист
User avatar
Joined: 12 Aug 2007
Posts: 6574
Lоcаtion: Санктъ-Петербуркъ
Age: 51
Name: Олекъ
:thanx: :true:

_________________
прокъметол - это музыко, от которово есть прок (ы)


Top
 Profile  
 
 
PostPosted: 10 Aug 2014 
Хиппей (support team)
User avatar
Joined: 30 Jul 2007
Posts: 113537
Lоcаtion: Киев (Kyiv, UA)
Age: 46
Name: Andrey
В общем, это таки трэш. Но с грувастым (да даже пост-гранджевым) хэви-мэталом. То есть основа - среднетемповой хэви.
Ближайший пример - Антракс с Бушем. Вот только там хоть мелодии были... :fingal: А эти так, палоптники на паперти :pardon:

3/10

_________________


Top
 Profile E-mail  
 
 
PostPosted: 10 Aug 2014 
Хиппей (support team)
User avatar
Joined: 30 Jul 2007
Posts: 113537
Lоcаtion: Киев (Kyiv, UA)
Age: 46
Name: Andrey
Слушал всю ночь (сквозь сон) и несколько часов днём альбом этот.
Подымаю оценку до 4. Несколько композиций всё же пролезли в моск :sp:

_________________


Top
 Profile E-mail  
 
Display posts from previous:  Sort by  
Post new topic Reply to topic  [ 6 posts ] 

All times are UTC + 3 hours


Who is online

Users browsing this forum: No registered users and 1 guest


You cannot post new topics in this forum
You cannot reply to topics in this forum
You cannot edit your posts in this forum
You cannot delete your posts in this forum
You cannot post attachments in this forum

Search for:
Яндекс.Метрика
Powered by phpBB © 2000, 2002, 2005, 2007 phpBB Group