\m/ 80's metal \m/

Информационно-аналитический форум "80 см пыли" (In Search We Trust) "У нас никто никуда не спешит"
Me For You - http://me-4u.com
It is currently 15 Oct 2019

All times are UTC + 3 hours

Spoiler
Chat - temporary registration for foreign users (please leave your application here)







Post new topic Reply to topic  [ 10 posts ] 
Author Message
 
PostPosted: 09 Jun 2014 
Работнечег
User avatar
Joined: 28 Aug 2007
Posts: 6027
Lоcаtion: г. Москва
Age: 30
Name: Дима
Image

Style: Heavy Metal
Year: 1993
Label: Alien Egg Records
Country: UK
Bitrate: Flac + Cue + Log + Covers
Size: 318 Mb

Line-Up:
Dave Crawte - Guitars, Bass
Paul Sutcliffe - Drums, Backing Vocals
Mark Sutcliffe - Vocals, Lead Guitars
Leo Smee - Bass


Tracklist:
1. Not Of This World 04:13
2. Hole 05:16
3. Soul Food 04:35
4. I Do Not Say 03:57
5. Junk 05:04
6. Stick In The Sea 05:02
7. Lies 05:27
8. Intrance 02:58
9. Watch The Skies 03:54
10. On The Roof Top 05:02

LOG
Exact Audio Copy V0.99 prebeta 5 from 4. May 2009

EAC extraction logfile from 2. June 2014, 20:26

Trespass / Head

Used drive : PIONEER DVD-RW DVR-116D Adapter: 0 ID: 0

Read mode : Secure
Utilize accurate stream : Yes
Defeat audio cache : Yes
Make use of C2 pointers : No

Read offset correction : 96
Overread into Lead-In and Lead-Out : No
Fill up missing offset samples with silence : Yes
Delete leading and trailing silent blocks : No
Null samples used in CRC calculations : Yes
Used interface : Native Win32 interface for Win NT & 2000

Used output format : User Defined Encoder
Selected bitrate : 32 kBit/s
Quality : High
Add ID3 tag : No
Command line compressor : C:\Program Files\Exact Audio Copy\Flac\flac.exe
Additional command line options : -6 -V %s


TOC of the extracted CD

Track | Start | Length | Start sector | End sector
---------------------------------------------------------
1 | 0:00.32 | 4:13.10 | 32 | 19016
2 | 4:13.42 | 5:16.45 | 19017 | 42761
3 | 9:30.12 | 4:35.60 | 42762 | 63446
4 | 14:05.72 | 3:57.28 | 63447 | 81249
5 | 18:03.25 | 5:04.12 | 81250 | 104061
6 | 23:07.37 | 5:02.10 | 104062 | 126721
7 | 28:09.47 | 5:27.38 | 126722 | 151284
8 | 33:37.10 | 2:58.55 | 151285 | 164689
9 | 36:35.65 | 3:54.25 | 164690 | 182264
10 | 40:30.15 | 5:03.10 | 182265 | 204999


Range status and errors

Selected range

Filename D:\Музыка\Lossless\Trespass - Head (1993)\Trespass - Head.wav

Peak level 100.0 %
Range quality 100.0 %
Copy CRC 21AC947F
Copy OK

No errors occurred


AccurateRip summary

Track 1 not present in database
Track 2 not present in database
Track 3 not present in database
Track 4 not present in database
Track 5 not present in database
Track 6 not present in database
Track 7 not present in database
Track 8 not present in database
Track 9 not present in database
Track 10 not present in database

None of the tracks are present in the AccurateRip database

End of status report

CUE
REM GENRE "Heavy Metal"
REM DATE 1993
REM DISCID 8D0AAD0A
REM COMMENT "ExactAudioCopy v0.99pb5"
PERFORMER "Trespass"
TITLE "Head"
FILE "Trespass - Head.flac" WAVE
TRACK 01 AUDIO
TITLE "Not Of This World"
PERFORMER "Trespass"
INDEX 00 00:00:00
INDEX 01 00:00:32
TRACK 02 AUDIO
TITLE "Hole"
PERFORMER "Trespass"
INDEX 01 04:13:42
TRACK 03 AUDIO
TITLE "Soul Food"
PERFORMER "Trespass"
INDEX 01 09:30:12
TRACK 04 AUDIO
TITLE "I Do Not Say"
PERFORMER "Trespass"
INDEX 01 14:05:72
TRACK 05 AUDIO
TITLE "Junk"
PERFORMER "Trespass"
INDEX 01 18:03:25
TRACK 06 AUDIO
TITLE "Stick In The Sea"
PERFORMER "Trespass"
INDEX 01 23:07:37
TRACK 07 AUDIO
TITLE "Lies"
PERFORMER "Trespass"
INDEX 01 28:09:47
TRACK 08 AUDIO
TITLE "In Trance"
PERFORMER "Trespass"
INDEX 00 33:36:37
INDEX 01 33:37:10
TRACK 09 AUDIO
TITLE "Watch The Skies"
PERFORMER "Trespass"
INDEX 01 36:35:65
TRACK 10 AUDIO
TITLE "On The Roof Top"
PERFORMER "Trespass"
INDEX 01 40:30:15


FLAC

Отличная NWOBHM группа, образовавшаяся в 1979 году, но первый и единственный альбом вышел токо в 1993 и надо сказать получился на порядок менее дачным, нежели чем синглы и демки начала 90-х, но тоже слушабельно. Влияния nwobhm здесь правда никакого не слышно, имхо) Довольно средний обычный хэви, но может кому понравится)
Вот так было в 80-х:
phpBB [youtube]


Top
 Profile E-mail  
 
 
PostPosted: 09 Jun 2014 
\m/ 80 см сала \m/
User avatar
Joined: 12 Mar 2012
Posts: 2590
Age: 26
Name: Nick
:thanx:

_________________
1990 AUROPHON BRAINSTORM (Germany) - lossless
1994 MAUSOLEUM CLASSIX (Belgium-Germany) - lossless
1998 VA - GRIM HARVEST - Complete Metal Massacre Volumes I-XII


Top
 Profile  
 
 
PostPosted: 10 Jun 2014 
Прокъмитолист
User avatar
Joined: 12 Aug 2007
Posts: 6620
Lоcаtion: Санктъ-Петербуркъ
Age: 51
Name: Олекъ
:thanx:

_________________
прокъметол - это музыко, от которово есть прок (ы)


Top
 Profile  
 
 
PostPosted: 10 Jun 2014 
Генеральный thrasher
User avatar
Joined: 03 Oct 2008
Posts: 3738
Lоcаtion: Ханты-Мансийский АО
Age: 44
Name: Сергей
И не слышал про таких...Откуда ты такие группы выкапываешь,Дима?


Top
 Profile  
 
 
PostPosted: 10 Jun 2014 
Работнечег
User avatar
Joined: 28 Aug 2007
Posts: 6027
Lоcаtion: г. Москва
Age: 30
Name: Дима
И не слышал про таких...Откуда ты такие группы выкапываешь,Дима?

Много качал в своё время)) теперь слушаю понемногу)


Top
 Profile E-mail  
 
 
PostPosted: 10 Jun 2014 
Хиппей (support team)
User avatar
Joined: 30 Jul 2007
Posts: 114829
Lоcаtion: Киев (Kyiv, UA)
Age: 46
Name: Andrey
:thanx:

mirror: M-Cloud l Narod

_________________


Top
 Profile E-mail  
 
 
PostPosted: 10 Jun 2014 
Я набрал 1000 сообщений!
Joined: 24 Oct 2009
Posts: 2271
Lоcаtion: Оренбург
Age: 56
Name: Юра
Дим, Спасибо!

_________________
:dash: I am happy!


Top
 Profile E-mail  
 
 
PostPosted: 10 Jun 2014 
спирт 100%
User avatar
Joined: 22 Sep 2008
Posts: 4473
Age: 48
Name: Саня
Димон,Спасибо! :thanx:


Top
 Profile  
 
 
PostPosted: 25 Dec 2017 
Доктор энтомологии
User avatar
Joined: 22 Jan 2009
Posts: 9923
Lоcаtion: Даугавпилс
Age: 44
Name: Алексей
Cвежий альбом за 2018 уже в сети :crazy:


Top
 Profile  
 
 
PostPosted: 25 Dec 2017 
семерых одним ударом
Joined: 18 Aug 2007
Posts: 4158
Lоcаtion: Владивосток
Age: 44
Name: Николай Николаевич
Спасибо за nwobhm. Появлюсь дома- качну обязательно


Top
 Profile  
 
Display posts from previous:  Sort by  
Post new topic Reply to topic  [ 10 posts ] 

All times are UTC + 3 hours


Who is online

Users browsing this forum: No registered users and 1 guest


You cannot post new topics in this forum
You cannot reply to topics in this forum
You cannot edit your posts in this forum
You cannot delete your posts in this forum
You cannot post attachments in this forum

Search for:
Яндекс.Метрика
Powered by phpBB © 2000, 2002, 2005, 2007 phpBB Group