\m/ 80's metal \m/

Информационно-аналитический форум "80 см пыли" (In Search We Trust) "У нас никто никуда не спешит"
Me For You - http://me-4u.com
It is currently 23 Oct 2019

All times are UTC + 3 hours

Spoiler
Chat - temporary registration for foreign users (please leave your application here)







Post new topic Reply to topic  [ 11 posts ] 
Author Message
 
PostPosted: 26 May 2014 
Работнечег
User avatar
Joined: 28 Aug 2007
Posts: 6037
Lоcаtion: г. Москва
Age: 30
Name: Дима
Image

Style: Heavy Metal
Year: 1995
Label: Self-released
Country: Austria
Bitrate: Flac + Cue + Log + Covers
Size: 136 Mb

Line-Up:
Mirko Matkovits - Drums (1987-1996)
Andreas Kalaschek - Guitars, Vocals (1987-?)
Christian Unger - Vocals, Bass (1987-?) (Red Sun Project)


Tracklist:
1. Listen To Me 00:31
2. The Preacher 05:08
3. Waiting For Tomorrow 04:46
4. Changes 03:08
5. Homesick 05:34
6. Peace Is 01:25

LOG
Exact Audio Copy V0.99 prebeta 5 from 4. May 2009

EAC extraction logfile from 25. May 2014, 15:50

Tiananmen / Tiananmen

Used drive : PIONEER DVD-RW DVR-116D Adapter: 0 ID: 0

Read mode : Secure
Utilize accurate stream : Yes
Defeat audio cache : Yes
Make use of C2 pointers : No

Read offset correction : 96
Overread into Lead-In and Lead-Out : No
Fill up missing offset samples with silence : Yes
Delete leading and trailing silent blocks : No
Null samples used in CRC calculations : Yes
Used interface : Native Win32 interface for Win NT & 2000

Used output format : User Defined Encoder
Selected bitrate : 32 kBit/s
Quality : High
Add ID3 tag : No
Command line compressor : C:\Program Files\Exact Audio Copy\Flac\flac.exe
Additional command line options : -6 -V %s


TOC of the extracted CD

Track | Start | Length | Start sector | End sector
---------------------------------------------------------
1 | 0:00.00 | 0:36.22 | 0 | 2721
2 | 0:36.22 | 5:08.23 | 2722 | 25844
3 | 5:44.45 | 4:45.52 | 25845 | 47271
4 | 10:30.22 | 3:08.20 | 47272 | 61391
5 | 13:38.42 | 5:34.28 | 61392 | 86469
6 | 19:12.70 | 1:25.25 | 86470 | 92869


Range status and errors

Selected range

Filename D:\Музыка\Lossless\Tiananmen - Tiananmen (1995)\Tiananmen - Tiananmen.wav

Peak level 100.0 %
Range quality 99.9 %
Copy CRC 05F98C61
Copy OK

No errors occurred


AccurateRip summary

Track 1 cannot be verified as accurate (confidence 1) [7788383A], AccurateRip returned [37CB9BED]
Track 2 cannot be verified as accurate (confidence 1) [3921C83B], AccurateRip returned [B68C9159]
Track 3 cannot be verified as accurate (confidence 1) [5D26BDE6], AccurateRip returned [5DE7303B]
Track 4 cannot be verified as accurate (confidence 1) [4318CD91], AccurateRip returned [B37078AD]
Track 5 cannot be verified as accurate (confidence 1) [4871ED23], AccurateRip returned [89C9BEBE]
Track 6 cannot be verified as accurate (confidence 1) [79D65251], AccurateRip returned [7C21B926]

No tracks could be verified as accurate
You may have a different pressing from the one(s) in the database

End of status report

CUE
REM GENRE "Thrash Metal"
REM DATE 1995
REM DISCID 3A04D606
REM COMMENT "ExactAudioCopy v0.99pb5"
PERFORMER "Tiananmen"
TITLE "Tiananmen"
FILE "Tiananmen - Tiananmen.flac" WAVE
TRACK 01 AUDIO
TITLE "Listen To Me"
PERFORMER "Tiananmen"
INDEX 01 00:00:00
TRACK 02 AUDIO
TITLE "The Preacher"
PERFORMER "Tiananmen"
INDEX 01 00:36:22
TRACK 03 AUDIO
TITLE "Waiting For Tomorrow"
PERFORMER "Tiananmen"
INDEX 00 05:43:37
INDEX 01 05:44:45
TRACK 04 AUDIO
TITLE "Changes"
PERFORMER "Tiananmen"
INDEX 00 10:28:42
INDEX 01 10:30:22
TRACK 05 AUDIO
TITLE "Homesick"
PERFORMER "Tiananmen"
INDEX 00 13:36:72
INDEX 01 13:38:42
TRACK 06 AUDIO
TITLE "Peace Is"
PERFORMER "Tiananmen"
INDEX 00 19:11:30
INDEX 01 19:12:70


FLAC

Так я и не определился толком со стилем, что-то съедобное, но не олдскульное, за 20 минут не надоевшее) нечто вроде technical heavy metal 90's :crazy:


Top
 Profile E-mail  
 
 
PostPosted: 26 May 2014 
Прокъмитолист
User avatar
Joined: 12 Aug 2007
Posts: 6628
Lоcаtion: Санктъ-Петербуркъ
Age: 52
Name: Олекъ
Димка, спасибо! :thanx: тянем :true:

_________________
прокъметол - это музыко, от которово есть прок (ы)


Top
 Profile  
 
 
PostPosted: 26 May 2014 
Генеральный thrasher
User avatar
Joined: 03 Oct 2008
Posts: 3741
Lоcаtion: Ханты-Мансийский АО
Age: 44
Name: Сергей
Димка,всё таки сделал рипчик!Спасибо!


Top
 Profile  
 
 
PostPosted: 26 May 2014 
Я набрал 1000 сообщений!
Joined: 24 Oct 2009
Posts: 2277
Lоcаtion: Оренбург
Age: 56
Name: Юра
Спасибо, Дим! :thanx:

_________________
:dash: I am happy!


Top
 Profile E-mail  
 
 
PostPosted: 26 May 2014 
Работнечег
User avatar
Joined: 28 Aug 2007
Posts: 6037
Lоcаtion: г. Москва
Age: 30
Name: Дима
Димка,всё таки сделал рипчик!Спасибо!

Ага, и второй альбом под боком лежит ;)


Top
 Profile E-mail  
 
 
PostPosted: 26 May 2014 
спирт 100%
User avatar
Joined: 22 Sep 2008
Posts: 4477
Age: 48
Name: Саня
:thanx: Дим,Спасибо!


Top
 Profile  
 
 
PostPosted: 27 May 2014 
Дежурный по КУПу
User avatar
Joined: 17 Aug 2007
Posts: 5871
Age: 51
Name: Ге
:thanx:

_________________
http://jp-mania.ru/
http://jp-tourdates.ucoz.ru/


Top
 Profile  
 
 
PostPosted: 27 May 2014 
Хиппей (support team)
User avatar
Joined: 30 Jul 2007
Posts: 115032
Lоcаtion: Киев (Kyiv, UA)
Age: 46
Name: Andrey
:thanx:

mirror: Narod l M-Cloud

_________________


Top
 Profile E-mail  
 
 
PostPosted: 27 May 2014 
Хиппей (support team)
User avatar
Joined: 30 Jul 2007
Posts: 115032
Lоcаtion: Киев (Kyiv, UA)
Age: 46
Name: Andrey
church wrote:
Так я и не определился толком со стилем, что-то съедобное, но не олдскульное

Alternative Metal/Groove Heavy :pardon:
Миник не понравился. Монотонен и уныл :cry:
Хорошо, что мало песенок :dance:

_________________


Top
 Profile E-mail  
 
 
PostPosted: 29 May 2014 
Генеральный thrasher
User avatar
Joined: 03 Oct 2008
Posts: 3741
Lоcаtion: Ханты-Мансийский АО
Age: 44
Name: Сергей
Не согласен с тобой,Андрюха!Хороший миник!


Top
 Profile  
 
 
PostPosted: 29 May 2014 
Хиппей (support team)
User avatar
Joined: 30 Jul 2007
Posts: 115032
Lоcаtion: Киев (Kyiv, UA)
Age: 46
Name: Andrey
Дак хороший, Серёг, качественный музон, но унылый ведь :pardon:
А прикинь полный альбом кабы был на минут так 65. Тоска ж :yyy:

_________________


Top
 Profile E-mail  
 
Display posts from previous:  Sort by  
Post new topic Reply to topic  [ 11 posts ] 

All times are UTC + 3 hours


Who is online

Users browsing this forum: No registered users and 1 guest


You cannot post new topics in this forum
You cannot reply to topics in this forum
You cannot edit your posts in this forum
You cannot delete your posts in this forum
You cannot post attachments in this forum

Search for:
Яндекс.Метрика
Powered by phpBB © 2000, 2002, 2005, 2007 phpBB Group