\m/ 80's metal \m/

Информационно-аналитический форум "80 см пыли" (In Search We Trust) "У нас никто никуда не спешит"
Me For You - http://me-4u.com
It is currently 16 Sep 2019

All times are UTC + 3 hours

Spoiler
Chat - temporary registration for foreign users (please leave your application here)







Post new topic Reply to topic  [ 9 posts ] 
Author Message
 
PostPosted: 04 May 2014 
Генеральный thrasher
User avatar
Joined: 03 Oct 2008
Posts: 3730
Lоcаtion: Ханты-Мансийский АО
Age: 44
Name: Сергей
Image

Year:1991
Style:Thrash Metal
Country:U.K.
Audio:Flac+Cue+Log+Scans
Size:322Mb
Source:my CD
Label:Tombstone Records

Tracklist:
01. Atomic Attack 03:17
02. Visions of Lust 05:38
03. In Gods Name 04:07
04. World's Got a Problem 03:51
05. Psychotaff 03:39
06. Loony Toon (Wake Up Mad) 03:43
07. Efnisien 03:46
08. I Fell in Love (W.M.S.) 03:47
09. Under the Blade 04:30
10. The Legacy 04:58
11. We Kill 03:26

"Cue"
REM GENRE "Thrash Metal"
REM DATE 1991
REM DISCID 9B0A8E0B
REM COMMENT "ExactAudioCopy v0.99pb5"
PERFORMER "Tortoise Corpse"
TITLE "World's Got A Problem"
FILE "Tortoise Corpse - World's Got A Problem.flac" WAVE
TRACK 01 AUDIO
TITLE "Atomic Attack"
PERFORMER "Tortoise Corpse"
INDEX 00 00:00:00
INDEX 01 00:00:33
TRACK 02 AUDIO
TITLE "Visions Of Lust"
PERFORMER "Tortoise Corpse"
INDEX 00 03:17:43
INDEX 01 03:18:60
TRACK 03 AUDIO
TITLE "In Gods Name"
PERFORMER "Tortoise Corpse"
INDEX 00 08:57:38
INDEX 01 08:58:18
TRACK 04 AUDIO
TITLE "World's Got A Problem"
PERFORMER "Tortoise Corpse"
INDEX 00 13:06:03
INDEX 01 13:07:65
TRACK 05 AUDIO
TITLE "Psychotaff"
PERFORMER "Tortoise Corpse"
INDEX 00 16:59:48
INDEX 01 17:02:35
TRACK 06 AUDIO
TITLE "Loony Toon (Wake Up Mad)"
PERFORMER "Tortoise Corpse"
INDEX 00 20:41:60
INDEX 01 20:45:05
TRACK 07 AUDIO
TITLE "Efnisien"
PERFORMER "Tortoise Corpse"
INDEX 00 24:28:48
INDEX 01 24:29:23
TRACK 08 AUDIO
TITLE "I Fell In Love (W.M.S.)"
PERFORMER "Tortoise Corpse"
INDEX 00 28:15:25
INDEX 01 28:16:28
TRACK 09 AUDIO
TITLE "Under The Blade"
PERFORMER "Tortoise Corpse"
INDEX 00 32:03:28
INDEX 01 32:04:33
TRACK 10 AUDIO
TITLE "The Legacy"
PERFORMER "Tortoise Corpse"
INDEX 00 36:34:70
INDEX 01 36:36:08
TRACK 11 AUDIO
TITLE "We Kill"
PERFORMER "Tortoise Corpse"
INDEX 00 41:34:60
INDEX 01 41:35:53

"Log"
Exact Audio Copy V0.99 prebeta 5 from 4. May 2009

Отчёт EAC об извлечении, выполненном 30. ноября 2012, 10:23

Tortoise Corpse / World's Got A Problem

Дисковод: TSSTcorpCDDVDW SH-S202N Adapter: 0 ID: 1

Режим чтения : Достоверность
Использование точного потока : Да
Отключение кэша аудио : Да
Использование указателей C2 : Нет

Коррекция смещения при чтении : 6
Способность читать области Lead-in и Lead-out : Нет
Заполнение пропущенных сэмплов тишиной : Да
Удаление блоков с тишиной в начале и конце : Нет
При вычислениях CRC использовались нулевые сэмплы : Да
Интерфейс : Встроенный Win32-интерфейс для Win NT/2000

Выходной формат : Пользовательский кодировщик
Выбранный битрейт : 768 kBit/s
Качество : Высокий
Добавление ID3-тэга : Нет
Утилита сжатия : C:\Program Files\Exact Audio Copy\FLAC\FLAC.EXE
Дополнительные параметры : -6 -V -T "ARTIST=%a" -T "TITLE=%t" -T "ALBUM=%g" -T "DATE=%y" -T "TRACKNUMBER=%n" -T "GENRE=%m" -T "COMMENT=%e" %s -o %d


TOC извлечённого CD

Трек | Старт | Длительность | Начальный сектор | Конечный сектор
---------------------------------------------------------------------
1 | 0:00.33 | 3:18.27 | 33 | 14909
2 | 3:18.60 | 5:39.33 | 14910 | 40367
3 | 8:58.18 | 4:09.47 | 40368 | 59089
4 | 13:07.65 | 3:54.45 | 59090 | 76684
5 | 17:02.35 | 3:42.45 | 76685 | 93379
6 | 20:45.05 | 3:44.18 | 93380 | 110197
7 | 24:29.23 | 3:47.05 | 110198 | 127227
8 | 28:16.28 | 3:48.05 | 127228 | 144332
9 | 32:04.33 | 4:31.50 | 144333 | 164707
10 | 36:36.08 | 4:59.45 | 164708 | 187177
11 | 41:35.53 | 3:26.60 | 187178 | 202687


Характеристики диапазона извлечения и сообщения об ошибках

Выбранный диапазон

Имя файла E:\Лоси\T\Tortoise Corpse - World's Got A Problem.wav

Пиковый уровень 100.0 %
Качество диапазона 100.0 %
CRC копии 727DAA94
Копирование... OK

Ошибок не произошло


AccurateRip: сводка

Трек 1 нет в базе данных
Трек 2 нет в базе данных
Трек 3 нет в базе данных
Трек 4 нет в базе данных
Трек 5 нет в базе данных
Трек 6 нет в базе данных
Трек 7 нет в базе данных
Трек 8 нет в базе данных
Трек 9 нет в базе данных
Трек 10 нет в базе данных
Трек 11 нет в базе данных

Ни одного трека нет в базе AccurateRip

Конец отчёта


World's Got A Problem


Top
 Profile  
 
 
PostPosted: 04 May 2014 
Хиппей (support team)
User avatar
Joined: 30 Jul 2007
Posts: 114353
Lоcаtion: Киев (Kyiv, UA)
Age: 46
Name: Andrey
:thanx:

mirror: Narod l M-Cloud

_________________


Top
 Profile E-mail  
 
 
PostPosted: 04 May 2014 
А может смените мне статус?..
User avatar
Joined: 28 Jul 2008
Posts: 991
Lоcаtion: Украина---Днепропетровск
Age: 45
Name: Александр
:true: :thanx:

_________________
Музыка в которой я растворяюсь многих угнетает......


Top
 Profile  
 
 
PostPosted: 04 May 2014 
Прокъмитолист
User avatar
Joined: 12 Aug 2007
Posts: 6600
Lоcаtion: Санктъ-Петербуркъ
Age: 51
Name: Олекъ
:thanx:

_________________
прокъметол - это музыко, от которово есть прок (ы)


Top
 Profile  
 
 
PostPosted: 04 May 2014 
\m/ 80 см сала \m/
User avatar
Joined: 12 Mar 2012
Posts: 2590
Age: 26
Name: Nick
:thanx:

_________________
1990 AUROPHON BRAINSTORM (Germany) - lossless
1994 MAUSOLEUM CLASSIX (Belgium-Germany) - lossless
1998 VA - GRIM HARVEST - Complete Metal Massacre Volumes I-XII


Top
 Profile  
 
 
PostPosted: 05 May 2014 
Alive Again
User avatar
Joined: 17 Dec 2008
Posts: 4747
Lоcаtion: Курск Воронеж Оскол
Age: 45
Name: Дмитрий
:thanx:


Top
 Profile E-mail  
 
 
PostPosted: 05 May 2014 
Анатолий
User avatar
Joined: 18 Oct 2008
Posts: 3530
Lоcаtion: Армавир
Age: 42
Name: Анатолий
Казалось бы уже все имена в Thrash знаемы-перезнаемы, но нет... оказывается есть ещё неизведанные странички в летописи!

thorbeorn

Спасибо большое! :thanx: Послушаю что сие такое.


Top
 Profile E-mail  
 
 
PostPosted: 05 May 2014 
\m/ 80 см сала \m/
User avatar
Joined: 12 Mar 2012
Posts: 2590
Age: 26
Name: Nick
задорно так лабают :true:

_________________
1990 AUROPHON BRAINSTORM (Germany) - lossless
1994 MAUSOLEUM CLASSIX (Belgium-Germany) - lossless
1998 VA - GRIM HARVEST - Complete Metal Massacre Volumes I-XII


Top
 Profile  
 
 
PostPosted: 06 May 2014 
Хиппей (support team)
User avatar
Joined: 30 Jul 2007
Posts: 114353
Lоcаtion: Киев (Kyiv, UA)
Age: 46
Name: Andrey
Privateer wrote:
оказывается есть ещё неизведанные странички в летописи!

:shok: Удивлён, что Толя не слушал эту группу :shok:

_________________


Top
 Profile E-mail  
 
Display posts from previous:  Sort by  
Post new topic Reply to topic  [ 9 posts ] 

All times are UTC + 3 hours


Who is online

Users browsing this forum: No registered users and 1 guest


You cannot post new topics in this forum
You cannot reply to topics in this forum
You cannot edit your posts in this forum
You cannot delete your posts in this forum
You cannot post attachments in this forum

Search for:
Яндекс.Метрика
Powered by phpBB © 2000, 2002, 2005, 2007 phpBB Group