\m/ 80's metal \m/

Информационно-аналитический форум "80 см пыли" (In Search We Trust) "У нас никто никуда не спешит"
Me For You - http://me-4u.com
It is currently 23 Oct 2019

All times are UTC + 3 hours

Spoiler
Chat - temporary registration for foreign users (please leave your application here)







Post new topic Reply to topic  [ 8 posts ] 
Author Message
 
PostPosted: 04 May 2014 
Генеральный thrasher
User avatar
Joined: 03 Oct 2008
Posts: 3741
Lоcаtion: Ханты-Мансийский АО
Age: 44
Name: Сергей
Image

Year:1996
Style:Thrash Metal
Country:U.K.
Audio:Flac+Cue+Log+Scans
Size:383Mb
Source:my CD
Label:Communique Records

Tracklist:
01. Standard Of Misery 05:28
02. Rage For War 04:28
03. Tyranny Of Heaven 04:39
04. Vietnam 05:12
05. Dead Head Kiss 07:33
06. The Black Book 07:21
07. Haemophilia 04:43
08. Wilderness Of Pain 03:254
09. Raft Of The Medusa 08:47

"Cue"
REM GENRE "Thrash Metal"
REM DATE 1996
REM DISCID 810C1A09
REM COMMENT "ExactAudioCopy v0.99pb5"
PERFORMER "Tortoise Corpse"
TITLE "Standard Of Misery"
FILE "Tortoise Corpse - Standard Of Misery.flac" WAVE
TRACK 01 AUDIO
TITLE "Standard Of Misery"
PERFORMER "Tortoise Corpse"
FLAGS DCP
INDEX 01 00:00:00
TRACK 02 AUDIO
TITLE "Rage For War"
PERFORMER "Tortoise Corpse"
FLAGS DCP
INDEX 01 05:28:25
TRACK 03 AUDIO
TITLE "Tyranny Of Heaven"
PERFORMER "Tortoise Corpse"
FLAGS DCP
INDEX 01 09:56:37
TRACK 04 AUDIO
TITLE "Vietnam"
PERFORMER "Tortoise Corpse"
FLAGS DCP
INDEX 01 14:36:25
TRACK 05 AUDIO
TITLE "Dead Head Kiss"
PERFORMER "Tortoise Corpse"
FLAGS DCP
INDEX 01 19:48:50
TRACK 06 AUDIO
TITLE "The Black Book"
PERFORMER "Tortoise Corpse"
FLAGS DCP
INDEX 01 27:21:62
TRACK 07 AUDIO
TITLE "Haemophilia"
PERFORMER "Tortoise Corpse"
FLAGS DCP
INDEX 01 34:43:12
TRACK 08 AUDIO
TITLE "Wilderness Of Pain"
PERFORMER "Tortoise Corpse"
FLAGS DCP
INDEX 01 39:26:50
TRACK 09 AUDIO
TITLE "Raft Of The Medusa"
PERFORMER "Tortoise Corpse"
FLAGS DCP
INDEX 01 42:51:25

"Log"
Exact Audio Copy V0.99 prebeta 5 from 4. May 2009

Отчёт EAC об извлечении, выполненном 23. ноября 2012, 18:22

Tortoise Corpse / Standard Of Misery

Дисковод: TSSTcorpCDDVDW SH-S202N Adapter: 0 ID: 1

Режим чтения : Достоверность
Использование точного потока : Да
Отключение кэша аудио : Да
Использование указателей C2 : Нет

Коррекция смещения при чтении : 6
Способность читать области Lead-in и Lead-out : Нет
Заполнение пропущенных сэмплов тишиной : Да
Удаление блоков с тишиной в начале и конце : Нет
При вычислениях CRC использовались нулевые сэмплы : Да
Интерфейс : Встроенный Win32-интерфейс для Win NT/2000

Выходной формат : Пользовательский кодировщик
Выбранный битрейт : 768 kBit/s
Качество : Высокий
Добавление ID3-тэга : Нет
Утилита сжатия : C:\Program Files\Exact Audio Copy\FLAC\FLAC.EXE
Дополнительные параметры : -6 -V -T "ARTIST=%a" -T "TITLE=%t" -T "ALBUM=%g" -T "DATE=%y" -T "TRACKNUMBER=%n" -T "GENRE=%m" -T "COMMENT=%e" %s -o %d


TOC извлечённого CD

Трек | Старт | Длительность | Начальный сектор | Конечный сектор
---------------------------------------------------------------------
1 | 0:00.00 | 5:28.25 | 0 | 24624
2 | 5:28.25 | 4:28.12 | 24625 | 44736
3 | 9:56.37 | 4:39.63 | 44737 | 65724
4 | 14:36.25 | 5:12.25 | 65725 | 89149
5 | 19:48.50 | 7:33.12 | 89150 | 123136
6 | 27:21.62 | 7:21.25 | 123137 | 156236
7 | 34:43.12 | 4:43.38 | 156237 | 177499
8 | 39:26.50 | 3:24.50 | 177500 | 192849
9 | 42:51.25 | 8:47.24 | 192850 | 232398


Характеристики диапазона извлечения и сообщения об ошибках

Выбранный диапазон

Имя файла E:\Лоси\T\Tortoise Corpse - Standard Of Misery.wav

Пиковый уровень 100.0 %
Качество диапазона 100.0 %
CRC копии 864D26AA
Копирование... OK

Ошибок не произошло


AccurateRip: сводка

Трек 1 нет в базе данных
Трек 2 нет в базе данных
Трек 3 нет в базе данных
Трек 4 нет в базе данных
Трек 5 нет в базе данных
Трек 6 нет в базе данных
Трек 7 нет в базе данных
Трек 8 нет в базе данных
Трек 9 нет в базе данных

Ни одного трека нет в базе AccurateRip

Конец отчёта


Standard Of Misery


Top
 Profile  
 
 
PostPosted: 04 May 2014 
Дежурный по КУПу
User avatar
Joined: 17 Aug 2007
Posts: 5871
Age: 51
Name: Ге
:thanx:

_________________
http://jp-mania.ru/
http://jp-tourdates.ucoz.ru/


Top
 Profile  
 
 
PostPosted: 04 May 2014 
Хиппей (support team)
User avatar
Joined: 30 Jul 2007
Posts: 115023
Lоcаtion: Киев (Kyiv, UA)
Age: 46
Name: Andrey
:thanx:

mirror: M-Cloud l Narod

_________________


Top
 Profile E-mail  
 
 
PostPosted: 04 May 2014 
А может смените мне статус?..
User avatar
Joined: 28 Jul 2008
Posts: 991
Lоcаtion: Украина---Днепропетровск
Age: 45
Name: Александр
:true: :thanx:

_________________
Музыка в которой я растворяюсь многих угнетает......


Top
 Profile  
 
 
PostPosted: 04 May 2014 
Прокъмитолист
User avatar
Joined: 12 Aug 2007
Posts: 6628
Lоcаtion: Санктъ-Петербуркъ
Age: 52
Name: Олекъ
Серёг, спасибо! :thanx:

_________________
прокъметол - это музыко, от которово есть прок (ы)


Top
 Profile  
 
 
PostPosted: 04 May 2014 
Генеральный thrasher
User avatar
Joined: 03 Oct 2008
Posts: 3741
Lоcаtion: Ханты-Мансийский АО
Age: 44
Name: Сергей
Слушайте :lloo: на здоровье! ;)


Top
 Profile  
 
 
PostPosted: 04 May 2014 
\m/ 80 см сала \m/
User avatar
Joined: 12 Mar 2012
Posts: 2590
Age: 26
Name: Nick
:thanx:

_________________
1990 AUROPHON BRAINSTORM (Germany) - lossless
1994 MAUSOLEUM CLASSIX (Belgium-Germany) - lossless
1998 VA - GRIM HARVEST - Complete Metal Massacre Volumes I-XII


Top
 Profile  
 
 
PostPosted: 05 May 2014 
Alive Again
User avatar
Joined: 17 Dec 2008
Posts: 4747
Lоcаtion: Курск Воронеж Оскол
Age: 45
Name: Дмитрий
:thanx:


Top
 Profile E-mail  
 
Display posts from previous:  Sort by  
Post new topic Reply to topic  [ 8 posts ] 

All times are UTC + 3 hours


Who is online

Users browsing this forum: No registered users and 1 guest


You cannot post new topics in this forum
You cannot reply to topics in this forum
You cannot edit your posts in this forum
You cannot delete your posts in this forum
You cannot post attachments in this forum

Search for:
Яндекс.Метрика
cron
Powered by phpBB © 2000, 2002, 2005, 2007 phpBB Group