\m/ 80's metal \m/

Информационно-аналитический форум "80 см пыли" (In Search We Trust) "У нас никто никуда не спешит"
Me For You - http://me-4u.com
It is currently 21 Oct 2019

All times are UTC + 3 hours

Spoiler
Chat - temporary registration for foreign users (please leave your application here)







Post new topic Reply to topic  [ 4 posts ] 
Author Message
 
PostPosted: 02 Feb 2014 
Пионэръ
User avatar
Joined: 15 Mar 2011
Posts: 17
Lоcаtion: Spain
Name: Tuco Pacífico
Image

Band: Tank
Album: Power of the Hunter
Year: 1982
Country: U.K.
Genre: NWOBHM
Format: CDRip (FLAC + CUE + LOG + Covers)
Length: 40:28 min
Size: 302 mb
Release: Tuco Pacífico[EsparaelMetal]

Image

Image

Tracklist:

1. Walking Barefoot Over Glass
2. Pure Hatred
3. Biting and Scratching
4. Some Came Running
5. T.A.N.K.
6. Used Leather (Hanging Loose)
7. Crazy Horses (Osmonds Cover)
8. Set Your Back on Fire
9. Red Skull Rock
10. Power of the Hunter

Скачать:
MEGA
Яндекс


LOG
Code:
Exact Audio Copy V1.0 beta 3 from 29. August 2011

EAC extraction logfile from 31. January 2014, 8:52

Tank / Power of the Hunter

Used drive  : TSSTcorpCDDVDW SE-S084F   Adapter: 2  ID: 0

Read mode               : Secure
Utilize accurate stream : Yes
Defeat audio cache      : Yes
Make use of C2 pointers : No

Read offset correction                      : 6
Overread into Lead-In and Lead-Out          : No
Fill up missing offset samples with silence : Yes
Delete leading and trailing silent blocks   : No
Null samples used in CRC calculations       : Yes
Used interface                    : Native Win32 interface for Win NT & 2000

Used output format : Internal WAV Routines
Sample format      : 44.100 Hz; 16 Bit; Stereo

TOC of the extracted CD

             Track |   Start  |  Length  | Start sector | End sector         
            ---------------------------------------------------------
                1  |  0:00.32 |  5:32.55 |        32    |    24986           
                2  |  5:33.12 |  3:51.33 |     24987    |    42344           
                3  |  9:24.45 |  4:41.25 |     42345    |    63444           
                4  | 14:05.70 |  3:03.32 |     63445    |    77201           
                5  | 17:09.27 |  3:51.30 |     77202    |    94556           
                6  | 21:00.57 |  4:21.13 |     94557    |   114144           
                7  | 25:21.70 |  2:52.12 |    114145    |   127056           
                8  | 28:14.07 |  3:57.25 |    127057    |   144856           
                9  | 32:11.32 |  4:07.30 |    144857    |   163411           
               10  | 36:18.62 |  4:09.45 |    163412    |   182131           

Range status and errors

Selected range

             Filename D:\Tuco Pacífico for EPM\Tank\Tank - Power of the Hunter.wav

             Peak level 100.0 %
             Extraction speed 1.7 X
             Range quality 100.0 %
             Test CRC FF78BF49
             Copy CRC FF78BF49
             Copy OK

No errors occurred

                 
AccurateRip summary
                 
Track  1  accurately ripped (confidence 1)  [B581B0B6]  (AR v1)
Track  2  accurately ripped (confidence 1)  [43583D96]  (AR v1)
Track  3  accurately ripped (confidence 1)  [60CA1722]  (AR v1)
Track  4  accurately ripped (confidence 1)  [B0F95CE6]  (AR v1)
Track  5  accurately ripped (confidence 1)  [9F51F327]  (AR v1)
Track  6  accurately ripped (confidence 1)  [F08CD8E6]  (AR v1)
Track  7  accurately ripped (confidence 1)  [4EEC4154]  (AR v1)
Track  8  accurately ripped (confidence 1)  [708BD5DC]  (AR v1)
Track  9  accurately ripped (confidence 1)  [002D355D]  (AR v1)
Track 10  accurately ripped (confidence 1)  [FC2EE517]  (AR v1)
                 
All tracks accurately ripped

End of status report

---- CUETools DB Plugin V2.1.3

[CTDB TOCID: BbAhdvswSv4DQqmx5H5m8tS.5FQ-] disk not present in database, Submit result: discs with pregaps not supported in this protocol version

==== Log checksum B6F895CF2778BDBBED6D67AD45C8559A0285498CB317CE3B3F96940CC38620D3 ====


Image


Top
 Profile E-mail  
 
 
PostPosted: 02 Feb 2014 
Дежурный по КУПу
User avatar
Joined: 17 Aug 2007
Posts: 5871
Age: 51
Name: Ге
:thanx:

_________________
http://jp-mania.ru/
http://jp-tourdates.ucoz.ru/


Top
 Profile  
 
 
PostPosted: 02 Feb 2014 
Хиппей (support team)
User avatar
Joined: 30 Jul 2007
Posts: 114979
Lоcаtion: Киев (Kyiv, UA)
Age: 46
Name: Andrey
:thanx:

mirror: Narod l M-Cloud

_________________


Top
 Profile E-mail  
 
 
PostPosted: 07 Feb 2014 
Alive Again
User avatar
Joined: 17 Dec 2008
Posts: 4747
Lоcаtion: Курск Воронеж Оскол
Age: 45
Name: Дмитрий
:thanx:


Top
 Profile E-mail  
 
Display posts from previous:  Sort by  
Post new topic Reply to topic  [ 4 posts ] 

All times are UTC + 3 hours


Who is online

Users browsing this forum: No registered users and 2 guests


You cannot post new topics in this forum
You cannot reply to topics in this forum
You cannot edit your posts in this forum
You cannot delete your posts in this forum
You cannot post attachments in this forum

Search for:
Яндекс.Метрика
Powered by phpBB © 2000, 2002, 2005, 2007 phpBB Group