\m/ 80's metal \m/

Информационно-аналитический форум "80 см пыли" (In Search We Trust) "У нас никто никуда не спешит"
Me For You - http://me-4u.com
It is currently 21 Sep 2019

All times are UTC + 3 hours

Spoiler
Chat - temporary registration for foreign users (please leave your application here)







Post new topic Reply to topic  [ 20 posts ] 
Author Message
 
PostPosted: 18 Jan 2014 
Персональный статус
User avatar
Joined: 04 Mar 2012
Posts: 239
Lоcаtion: Саратов
Name: Василий
[reqs] Tommyknockerz (Austria) - In the Course of Time... Leading to Decrease (1996)
Groove|Thrash Metal
Image
http://www.metal-archives.com/bands/Tommyknockerz/3777
Отличный трэш, децл пригрувованный. Никакой модни. Всё как старики учили.
Нашёл на муле http://moole.ru/tags/Tommyknockerz/, но там меня нет. Пробовал пару раз, не пустили :(
Прошу добрых меломан с доступом к искомому, поделиться этой вкуснятинкой :oops:


Top
 Profile E-mail  
 
 
PostPosted: 18 Jan 2014 
Хиппей (support team)
User avatar
Joined: 30 Jul 2007
Posts: 114411
Lоcаtion: Киев (Kyiv, UA)
Age: 46
Name: Andrey
Дык, модняк ведь :lloo:

_________________


Top
 Profile E-mail  
 
 
PostPosted: 18 Jan 2014 
Хиппей (support team)
User avatar
Joined: 30 Jul 2007
Posts: 114411
Lоcаtion: Киев (Kyiv, UA)
Age: 46
Name: Andrey
Quote:
Заявка на подключение к доку
Ваша заявка на подключение к доку отправлена и после рассмотрения её администратором дока вы возможно будете занесены в список подключённых
Отправил: Front666

_________________


Top
 Profile E-mail  
 
 
PostPosted: 18 Jan 2014 
Персональный статус
User avatar
Joined: 04 Mar 2012
Posts: 239
Lоcаtion: Саратов
Name: Василий
Scatterbrain wrote:
Дык, модняк ведь

Что слышал - по канонам.


Top
 Profile E-mail  
 
 
PostPosted: 18 Jan 2014 
Работнечег
User avatar
Joined: 28 Aug 2007
Posts: 5995
Lоcаtion: г. Москва
Age: 30
Name: Дима
Есть на сиди. Наскоко помнится среднетемповый трэш... Лось нужен?


Top
 Profile E-mail  
 
 
PostPosted: 18 Jan 2014 
Хиппей (support team)
User avatar
Joined: 30 Jul 2007
Posts: 114411
Lоcаtion: Киев (Kyiv, UA)
Age: 46
Name: Andrey
Дим, а давай неспеша лося, плиз :dance:
В мпз то залью скоро.

_________________


Top
 Profile E-mail  
 
 
PostPosted: 18 Jan 2014 
Хиппей (support team)
User avatar
Joined: 30 Jul 2007
Posts: 114411
Lоcаtion: Киев (Kyiv, UA)
Age: 46
Name: Andrey
Tommyknockerz - 1995 - In The Course Of Time... Leading To Decrease [320]

Image Image

Narod l M-Cloud

_________________


Top
 Profile E-mail  
 
 
PostPosted: 18 Jan 2014 
Персональный статус
User avatar
Joined: 04 Mar 2012
Posts: 239
Lоcаtion: Саратов
Name: Василий
Всем-всем-всем :thanx:


Top
 Profile E-mail  
 
 
PostPosted: 18 Jan 2014 
Персональный статус
User avatar
Joined: 04 Mar 2012
Posts: 239
Lоcаtion: Саратов
Name: Василий
О лосе и не мечталосе даже :shok:
Саныч, огромное тебе!


Top
 Profile E-mail  
 
 
PostPosted: 19 Jan 2014 
Хиппей (support team)
User avatar
Joined: 30 Jul 2007
Posts: 114411
Lоcаtion: Киев (Kyiv, UA)
Age: 46
Name: Andrey
Да мне то за что :vic:

Альбом фигня среднетемповая слегка грувастого трэша начала 90-х. То есть, если он где еще тогда не умер, то пребывал примерно в таком состоянии как и эта группа :pardon:

Лишь 4-я и 5-я по счёту песни вызвали во мне какие-то сентенции к подтанцовочке лёгенькой :dance:

Ну и к тому доку подключили меня без проблем:
Получены персональные сообщения

Уважаемый Wirrkopf с момента вашего отсутствия на сайте вам было прислано 1 новых персональных сообщений.

Тема: Вы были подключены к доку ...
Отправитель Front666
Поздравляем! В результате рассмотрение вашей заявки вы были подключены к доку Old School ...

Правда линк там оказался дохлым :pardon: ыыы
Пришлось им свои оставить :dance:

_________________


Top
 Profile E-mail  
 
 
PostPosted: 19 Jan 2014 
Хиппей (support team)
User avatar
Joined: 30 Jul 2007
Posts: 114411
Lоcаtion: Киев (Kyiv, UA)
Age: 46
Name: Andrey
О, етить, в седьмой композиции в самом начале даже баба запела :shok: И основной вокалист несколько слов почти прорычал.
Эх... :pardon: А затем они оба на пару с бабой выть начали :lloo:

_________________


Top
 Profile E-mail  
 
 
PostPosted: 19 Jan 2014 
Персональный статус
User avatar
Joined: 04 Mar 2012
Posts: 239
Lоcаtion: Саратов
Name: Василий
Scatterbrain wrote:
Альбом фигня среднетемповая слегка грувастого трэша начала 90-х.

Уговорил, моднёвые австрийчики. Но моментами забирают. Пусть полежат в коллекции. Рядом с Хэдшотами :smile:


Top
 Profile E-mail  
 
 
PostPosted: 19 Jan 2014 
Хиппей (support team)
User avatar
Joined: 30 Jul 2007
Posts: 114411
Lоcаtion: Киев (Kyiv, UA)
Age: 46
Name: Andrey
Naftalin wrote:
Но моментами забирают.

Ну это да. Когда становится совсем тоскливо вдруг появляется на альбоме бодренькая и нестандартная песенка :shok:

_________________


Top
 Profile E-mail  
 
 
PostPosted: 29 May 2014 
Работнечег
User avatar
Joined: 28 Aug 2007
Posts: 5995
Lоcаtion: г. Москва
Age: 30
Name: Дима
Image


Style: Groove Thrash Metal
Year: 1996
Label: Self-released
Country: Austria
Bitrate: Flac + Cue + Log + Covers
Size: 326 Mb

Line-Up:
Jens Melchert - Bass, Backing Vocals
Thomas "Knocker" Radatz - Drums
Martin "Cesi" Reithofer - Guitars (electric, slide, acoustic), Talk Box
Stefan "Lu" Luzsicza - Vocals, Guitar


Tracklist:
1. Intro 00:53
2. Alien Breed 05:55
3. Tears of Repentance 04:45
4. In My Dreams 07:28
5. Mental Agony 03:57
6. Change Your Life 03:14
7. Clouded World 08:30
8. Silent Consent 03:36
9. Jägermeister 04:46

LOG
Exact Audio Copy V0.99 prebeta 5 from 4. May 2009

EAC extraction logfile from 29. May 2014, 14:38

Tommyknockerz / In The Course Of Time...

Used drive : PIONEER DVD-RW DVR-116D Adapter: 0 ID: 0

Read mode : Secure
Utilize accurate stream : Yes
Defeat audio cache : Yes
Make use of C2 pointers : No

Read offset correction : 96
Overread into Lead-In and Lead-Out : No
Fill up missing offset samples with silence : Yes
Delete leading and trailing silent blocks : No
Null samples used in CRC calculations : Yes
Used interface : Native Win32 interface for Win NT & 2000

Used output format : User Defined Encoder
Selected bitrate : 32 kBit/s
Quality : High
Add ID3 tag : No
Command line compressor : C:\Program Files\Exact Audio Copy\Flac\flac.exe
Additional command line options : -6 -V %s


TOC of the extracted CD

Track | Start | Length | Start sector | End sector
---------------------------------------------------------
1 | 0:00.00 | 0:54.20 | 0 | 4069
2 | 0:54.20 | 5:59.10 | 4070 | 31004
3 | 6:53.30 | 4:50.27 | 31005 | 52781
4 | 11:43.57 | 7:31.63 | 52782 | 86669
5 | 19:15.45 | 4:02.15 | 86670 | 104834
6 | 23:17.60 | 3:18.37 | 104835 | 119721
7 | 26:36.22 | 8:32.13 | 119722 | 158134
8 | 35:08.35 | 3:42.35 | 158135 | 174819
9 | 38:50.70 | 4:48.15 | 174820 | 196434


Range status and errors

Selected range

Filename D:\Музыка\Lossless\Tommyknockerz - In The Course Of Time.... (1996)\Tommyknockerz - In The Course Of Time....wav

Peak level 99.3 %
Range quality 100.0 %
Copy CRC 4731AE09
Copy OK

No errors occurred


AccurateRip summary

Track 1 not present in database
Track 2 not present in database
Track 3 not present in database
Track 4 not present in database
Track 5 not present in database
Track 6 not present in database
Track 7 not present in database
Track 8 not present in database
Track 9 not present in database

None of the tracks are present in the AccurateRip database

End of status report

CUE
REM GENRE "Groove Thrash Metal"
REM DATE 1996
REM DISCID 6C0A3B09
REM COMMENT "ExactAudioCopy v0.99pb5"
PERFORMER "Tommyknockerz"
TITLE "In The Course Of Time..."
FILE "Tommyknockerz - In The Course Of Time....flac" WAVE
TRACK 01 AUDIO
TITLE "Intro"
PERFORMER "Tommyknockerz"
INDEX 01 00:00:00
TRACK 02 AUDIO
TITLE "Alien Breed"
PERFORMER "Tommyknockerz"
INDEX 01 00:54:20
TRACK 03 AUDIO
TITLE "Tears Of Repentance"
PERFORMER "Tommyknockerz"
INDEX 00 06:50:60
INDEX 01 06:53:30
TRACK 04 AUDIO
TITLE "In My Dreams"
PERFORMER "Tommyknockerz"
INDEX 00 11:40:17
INDEX 01 11:43:57
TRACK 05 AUDIO
TITLE "Mental Agony"
PERFORMER "Tommyknockerz"
INDEX 00 19:13:37
INDEX 01 19:15:45
TRACK 06 AUDIO
TITLE "Change Your Life"
PERFORMER "Tommyknockerz"
INDEX 00 23:13:72
INDEX 01 23:17:60
TRACK 07 AUDIO
TITLE "Clouded World"
PERFORMER "Tommyknockerz"
INDEX 00 26:33:52
INDEX 01 26:36:22
TRACK 08 AUDIO
TITLE "Silent Consent"
PERFORMER "Tommyknockerz"
INDEX 00 35:05:47
INDEX 01 35:08:35
TRACK 09 AUDIO
TITLE "Jagermeister"
PERFORMER "Tommyknockerz"
INDEX 00 38:48:12
INDEX 01 38:50:70


FLAC

Может кому пригодится, довольно неплохой альбомчик


Top
 Profile E-mail  
 
 
PostPosted: 29 May 2014 
Хиппей (support team)
User avatar
Joined: 30 Jul 2007
Posts: 114411
Lоcаtion: Киев (Kyiv, UA)
Age: 46
Name: Andrey
:thanx:

mirror: M-Cloud l Narod

_________________


Top
 Profile E-mail  
 
 
PostPosted: 29 May 2014 
Работнечег
User avatar
Joined: 28 Aug 2007
Posts: 5995
Lоcаtion: г. Москва
Age: 30
Name: Дима
Андрюх, тебе уже не понравилось (см. выше), так что можешь не качать ;)


Top
 Profile E-mail  
 
 
PostPosted: 29 May 2014 
Хиппей (support team)
User avatar
Joined: 30 Jul 2007
Posts: 114411
Lоcаtion: Киев (Kyiv, UA)
Age: 46
Name: Andrey
Уже скачал =) Завтра послушаю.
Я ж мнение раз несколько за день могу менять :crazy: Вот кабы ты не напомнил, я бы явно посмотрел, чего раньше за отзыв оставил, а теперь и тем более читать не стану сам себя раннего =) :pardon:

_________________


Top
 Profile E-mail  
 
 
PostPosted: 30 May 2014 
Хиппей (support team)
User avatar
Joined: 30 Jul 2007
Posts: 114411
Lоcаtion: Киев (Kyiv, UA)
Age: 46
Name: Andrey
Хм, а вот и более-менее понравился .
Сегодня так сложилось, что слушал лишь трэш-метол, и вот из 5 альбомов этот оказался самым лучшим и активным. Такой себе австрийский местами пригрувастенький вариант Сепультуры начала 90-х :dance:
Не фонтан, но и не висячка грувастая и уныло-темповая :pardon:

6+/10

_________________


Top
 Profile E-mail  
 
 
PostPosted: 30 May 2014 
Персональный статус
User avatar
Joined: 04 Mar 2012
Posts: 239
Lоcаtion: Саратов
Name: Василий
:thanx:


Top
 Profile E-mail  
 
 
PostPosted: 31 May 2014 
ТрэшЭрос
User avatar
Joined: 18 Jul 2011
Posts: 2304
Lоcаtion: Гулькевичи
Age: 44
Name: Александр
:thanx: но не моё :pardon:
Вставки изрыганий и ссыка с последующим смывом придаю албомчегу особый "шарм"... :dragon:

_________________
Thrash no trash!!!


Top
 Profile E-mail  
 
Display posts from previous:  Sort by  
Post new topic Reply to topic  [ 20 posts ] 

All times are UTC + 3 hours


Who is online

Users browsing this forum: No registered users and 1 guest


You cannot post new topics in this forum
You cannot reply to topics in this forum
You cannot edit your posts in this forum
You cannot delete your posts in this forum
You cannot post attachments in this forum

Search for:
Яндекс.Метрика
cron
Powered by phpBB © 2000, 2002, 2005, 2007 phpBB Group