\m/ 80's metal \m/

Информационно-аналитический форум "80 см пыли" (In Search We Trust) "У нас никто никуда не спешит"
Me For You - http://me-4u.com
It is currently 21 Oct 2019

All times are UTC + 3 hours

Spoiler
Chat - temporary registration for foreign users (please leave your application here)







Post new topic Reply to topic  [ 6 posts ] 
Author Message
 
PostPosted: 13 Dec 2013 
парень в очёчкXаX!
User avatar
Joined: 15 Aug 2007
Posts: 2353
Lоcаtion: UK'раина, г. ЛондАн Би-Би-Си
Age: 49
Name: Сергей
---------> в сетевой паутине не нашел, стало быть в коллекцию.... и толькА! <---------
Image
Country: USA
Genre: Heavy Metal
Format: WAV+CUE+LOG
Total size: 325mb (+Repair info)
Source: My CDDA collection

Label: Rock Hard Records
Catalogue number: RH-2490
Matrix: KM 8924 7/90 1DA2X

Made & printed in U.S.A.

Line up:
Gary Stewart - Vocals
Glen Miller - Guitar & Vocals
Joe Minor - Guitar & Vocals
Dave Injeski - Bass & Vocals
Tommy "Gunn" Salzburg - Drums

Tracklisting:
1 - Bitch Animal
2 - Girl's In Heat
3 - Badman
4 - Outside Lover
5 - Roll Like Thunder
6 - Over The Cliff
7 - Under The Spell Of Midnight
8 - Jealousy
9 - Anthem
10 - Tina Wants A Ride
11 - Big Time Car

Total playing time: 44:02

Produced by TATTOO & Timothy R. Powell
Engineered by Timothy R. Powell & Kim Russell. Live Audio by Pat Loebach

Recorded Live January 26, 1990 at Thirsty Whale, River Grove, Illinois by Metro Mobile Recording Glenview Illinois


© & ℗ 1990 Rock Hard Records
© & ℗ 1990 Big Beef Bayonet, BMI

album + HQ scans
Image
TAU Analyzer ~ tracks
Image

TAU Analyzer ~ spectrum
Image

TAU Analyzer ~ frequency
Image


Top
 Profile  
 
 
PostPosted: 13 Dec 2013 
Хиппей (support team)
User avatar
Joined: 30 Jul 2007
Posts: 114979
Lоcаtion: Киев (Kyiv, UA)
Age: 46
Name: Andrey
:thanx:

mirror: Narod l M-Cloud


А вроде ж там две лесбиянки в группе были :vic:

_________________


Top
 Profile E-mail  
 
 
PostPosted: 13 Dec 2013 
Почётный металлург
User avatar
Joined: 15 Sep 2007
Posts: 4358
Lоcаtion: Хабаровск
Age: 59
Name: чуть выше
Спасибо!

_________________
Коль будешь людей ты ослами честить,
тебе человеком меж них не прослыть!
(Саади, персидский поэт, 13в.)


Top
 Profile  
 
 
PostPosted: 13 Dec 2013 
Я набрал 1000 сообщений!
Joined: 24 Oct 2009
Posts: 2277
Lоcаtion: Оренбург
Age: 56
Name: Юра
Спасибо! :thanx:

_________________
:dash: I am happy!


Top
 Profile E-mail  
 
 
PostPosted: 14 Dec 2013 
Хиппей (support team)
User avatar
Joined: 30 Jul 2007
Posts: 114979
Lоcаtion: Киев (Kyiv, UA)
Age: 46
Name: Andrey
Ой, так мало того, шо это Glam Hard & Heavy (ну и что, что рожи не накрашены? вы вокал и квакеры слышите?), так еще и альбом концертный :true:

Жаль Серёга выдал мало инфы по группе... :vic:
Вот первый трэк, допустим. есть где послушать в студийном варианте? А то весьма смахивают на пародию на облегчённый Мановар =)

log
Exact Audio Copy V1.0 beta 3 from 29. August 2011

Отчёт EAC об извлечении, выполненном 12. декабря 2013, 21:45

Tattoo / Out Loud Live

Дисковод: TEAC CD-W524E Adapter: 1 ID: 0

Режим чтения : Достоверность
Использование точного потока : Да
Отключение кэша аудио : Да
Использование указателей C2 : Нет

Коррекция смещения при чтении : 686
Способность читать области Lead-in и Lead-out : Нет
Заполнение пропущенных сэмплов тишиной : Да
Удаление блоков с тишиной в начале и конце : Нет
При вычислениях CRC использовались нулевые сэмплы : Да
Интерфейс : Встроенный Win32-интерфейс для Win NT/2000

Выходной формат : Внутренние WAV-операции
Формат сэмплов : 44.100 Гц; 16 бит; стерео


TOC извлечённого CD

Трек | Старт | Длительность | Начальный сектор | Конечный сектор
---------------------------------------------------------------------
1 | 0:00.00 | 3:48.25 | 0 | 17124
2 | 3:48.25 | 3:46.18 | 17125 | 34092
3 | 7:34.43 | 4:56.62 | 34093 | 56354
4 | 12:31.30 | 5:13.65 | 56355 | 79894
5 | 17:45.20 | 2:23.43 | 79895 | 90662
6 | 20:08.63 | 3:30.45 | 90663 | 106457
7 | 23:39.33 | 4:19.10 | 106458 | 125892
8 | 27:58.43 | 3:02.55 | 125893 | 139597
9 | 31:01.23 | 3:55.60 | 139598 | 157282
10 | 34:57.08 | 3:22.57 | 157283 | 172489
11 | 38:19.65 | 5:40.23 | 172490 | 198012


Характеристики диапазона извлечения и сообщения об ошибках

Выбранный диапазон

Имя файла D:\Music\Сегодня+\CoverZ\UPLOADz\Tattoo-90\Tattoo - Out Loud Live.wav

Пиковый уровень 99.8 %
Скорость извлечения 7.2 X
Качество диапазона 100.0 %
CRC копии ADA7FF19
Копирование... OK

Ошибок не произошло


AccurateRip: сводка

Трек 1 отсутствует в базе данных
Трек 2 отсутствует в базе данных
Трек 3 отсутствует в базе данных
Трек 4 отсутствует в базе данных
Трек 5 отсутствует в базе данных
Трек 6 отсутствует в базе данных
Трек 7 отсутствует в базе данных
Трек 8 отсутствует в базе данных
Трек 9 отсутствует в базе данных
Трек 10 отсутствует в базе данных
Трек 11 отсутствует в базе данных

Ни одного трека нет в базе AccurateRip

Конец отчёта

---- CUETools DB Plugin V2.1.4

[CTDB TOCID: J0ZagTevAQ46ll5svoqhxwF2Sl4-] disk not present in database
Submit result: J0ZagTevAQ46ll5svoqhxwF2Sl4- has been uploaded

cue
REM GENRE "Heavy Metal"
REM DATE 1990
REM DISCID 7A0A500B
REM COMMENT "ExactAudioCopy v1.0b3"
PERFORMER "Tattoo"
TITLE "Out Loud Live"
FILE "Tattoo - Out Loud Live.wav" WAVE
TRACK 01 AUDIO
TITLE "Трек01"
PERFORMER "Tattoo"
INDEX 01 00:00:00
TRACK 02 AUDIO
TITLE "Трек02"
PERFORMER "Tattoo"
INDEX 01 03:48:25
TRACK 03 AUDIO
TITLE "Трек03"
PERFORMER "Tattoo"
INDEX 01 07:34:43
TRACK 04 AUDIO
TITLE "Трек04"
PERFORMER "Tattoo"
INDEX 01 12:31:30
TRACK 05 AUDIO
TITLE "Трек05"
PERFORMER "Tattoo"
INDEX 01 17:45:20
TRACK 06 AUDIO
TITLE "Трек06"
PERFORMER "Tattoo"
INDEX 01 20:08:63
TRACK 07 AUDIO
TITLE "Трек07"
PERFORMER "Tattoo"
INDEX 01 23:39:33
TRACK 08 AUDIO
TITLE "Трек08"
PERFORMER "Tattoo"
INDEX 01 27:58:43
TRACK 09 AUDIO
TITLE "Трек09"
PERFORMER "Tattoo"
INDEX 01 31:01:23
TRACK 10 AUDIO
TITLE "Трек10"
PERFORMER "Tattoo"
INDEX 01 34:57:08
TRACK 11 AUDIO
TITLE "Трек11"
PERFORMER "Tattoo"
INDEX 01 38:19:65

_________________


Top
 Profile E-mail  
 
 
PostPosted: 14 Dec 2013 
Хиппей (support team)
User avatar
Joined: 30 Jul 2007
Posts: 114979
Lоcаtion: Киев (Kyiv, UA)
Age: 46
Name: Andrey
О, ну так группа даже на М-А есть http://www.metal-archives.com/bands/Tattoo/15371 :lloo:

_________________


Top
 Profile E-mail  
 
Display posts from previous:  Sort by  
Post new topic Reply to topic  [ 6 posts ] 

All times are UTC + 3 hours


Who is online

Users browsing this forum: No registered users and 1 guest


You cannot post new topics in this forum
You cannot reply to topics in this forum
You cannot edit your posts in this forum
You cannot delete your posts in this forum
You cannot post attachments in this forum

Search for:
Яндекс.Метрика
Powered by phpBB © 2000, 2002, 2005, 2007 phpBB Group