\m/ 80's metal \m/

Информационно-аналитический форум "80 см пыли" (In Search We Trust) "У нас никто никуда не спешит"
Me For You - http://me-4u.com
It is currently 16 Oct 2019

All times are UTC + 3 hours

Spoiler
Chat - temporary registration for foreign users (please leave your application here)







Post new topic Reply to topic  [ 5 posts ] 
Author Message
 
PostPosted: 29 Oct 2013 
адын фелософъ прокметолу
User avatar
Joined: 22 Oct 2009
Posts: 2789
Lоcаtion: Сочи
Age: 42
Name: Сергей
Последний мой релиз :( в октябре
The Scream of the Guillotine - S/T 2001
Image

Genre: Progressive Metal
Location: USA
Format: flac + cue + log + scans
Size: 376 Mb
Label: Lightsine International Ministries


Line-up:
Bevan Carroll - Bass
Tom Denlinger - Vocals
Phil Williams - Guitars
Jeff Culp - Drums, Percussion, Keyboards

Tracklist:
1. Dream Sequence One-The Martyr's Death 02:19
2. Scream of the Guillotine 03:01 instrumental
3. Tell Me Why 03:47
4. Son of Hell 03:42
5. It's Time 05:29
6. Street Sirens 05:28 instrumental
7. What Do You Want With Me? 03:29
8. A. On the Street-Looking for Krystyl / B. In the Club-The Mirage / C. Conversation with Krystyl 04:29
9. A. Steven Wakes Up / B. Steven Rums from The Mirage and attempts Suicide 02:11
10. Andrew's Prayer 04:14
11. Cracks of Time 04:26
12. Holy Unto Thee 03:22
13. The Finale-Glory 04:38
14. Postlude Music - 2 Corinthians 5:14-21 NIV 01:25
TPT:52:00

log
Audio Copy V1.0 beta 3 from 29. August 2011

Отчёт EAC об извлечении, выполненном 29. октября 2013, 22:21

The Scream Of The Guillotine / S/T

Дисковод: TSSTcorpCDDVDW SH-224DB Adapter: 0 ID: 0

Режим чтения : Достоверность
Использование точного потока : Да
Отключение кэша аудио : Да
Использование указателей C2 : Нет

Коррекция смещения при чтении : 6
Способность читать области Lead-in и Lead-out : Нет
Заполнение пропущенных сэмплов тишиной : Да
Удаление блоков с тишиной в начале и конце : Нет
При вычислениях CRC использовались нулевые сэмплы : Да
Интерфейс : Встроенный Win32-интерфейс для Win NT/2000

Выходной формат : Внутренние WAV-операции
Формат сэмплов : 44.100 Гц; 16 бит; стерео


TOC извлечённого CD

Трек | Старт | Длительность | Начальный сектор | Конечный сектор
---------------------------------------------------------------------
1 | 0:00.00 | 2:19.24 | 0 | 10448
2 | 2:19.24 | 3:00.74 | 10449 | 24022
3 | 5:20.23 | 3:47.66 | 24023 | 41113
4 | 9:08.14 | 3:42.67 | 41114 | 57830
5 | 12:51.06 | 5:29.11 | 57831 | 82516
6 | 18:20.17 | 5:28.70 | 82517 | 107186
7 | 23:49.12 | 3:29.32 | 107187 | 122893
8 | 27:18.44 | 4:29.56 | 122894 | 143124
9 | 31:48.25 | 2:11.57 | 143125 | 153006
10 | 34:00.07 | 4:14.09 | 153007 | 172065
11 | 38:14.16 | 4:26.49 | 172066 | 192064
12 | 42:40.65 | 3:22.58 | 192065 | 207272
13 | 46:03.48 | 4:38.62 | 207273 | 228184
14 | 50:42.35 | 1:25.29 | 228185 | 234588


Характеристики диапазона извлечения и сообщения об ошибках

Выбранный диапазон

Имя файла C:\Users\Сергей\Music\The Scream Of The Guillotine - S,T.wav

Пиковый уровень 99.8 %
Скорость извлечения 6.0 X
Качество диапазона 100.0 %
CRC теста 81652016
CRC копии 81652016
Копирование... OK

Ошибок не произошло


cue
REM GENRE "Christian Rock"
REM DATE 2001
REM DISCID 960C370E
REM COMMENT "ExactAudioCopy v1.0b3"
PERFORMER "The Scream Of The Guillotine"
TITLE "S/T"
FILE "The Scream Of The Guillotine - S,T.wav" WAVE
TRACK 01 AUDIO
TITLE "Dream Sequence One"
PERFORMER "The Scream Of The Guillotine"
INDEX 01 00:00:00
TRACK 02 AUDIO
TITLE "The Scream Of The Guillotine"
PERFORMER "The Scream Of The Guillotine"
INDEX 01 02:19:24
TRACK 03 AUDIO
TITLE "Tell Me Why"
PERFORMER "The Scream Of The Guillotine"
INDEX 01 05:20:23
TRACK 04 AUDIO
TITLE "Son Of Hell"
PERFORMER "The Scream Of The Guillotine"
INDEX 01 09:08:14
TRACK 05 AUDIO
TITLE "It's Time"
PERFORMER "The Scream Of The Guillotine"
INDEX 01 12:51:06
TRACK 06 AUDIO
TITLE "Secret Sirens"
PERFORMER "The Scream Of The Guillotine"
INDEX 01 18:20:17
TRACK 07 AUDIO
TITLE "What Do You Want With Me?"
PERFORMER "The Scream Of The Guillotine"
INDEX 01 23:49:12
TRACK 08 AUDIO
TITLE "On The Street"
PERFORMER "The Scream Of The Guillotine"
INDEX 01 27:18:44
TRACK 09 AUDIO
TITLE "Dream Sequence Two"
PERFORMER "The Scream Of The Guillotine"
INDEX 01 31:48:25
TRACK 10 AUDIO
TITLE "Andrew's Prayer"
PERFORMER "The Scream Of The Guillotine"
INDEX 01 34:00:07
TRACK 11 AUDIO
TITLE "Cracks Of Time"
PERFORMER "The Scream Of The Guillotine"
INDEX 01 38:14:16
TRACK 12 AUDIO
TITLE "Holy Unto Thee"
PERFORMER "The Scream Of The Guillotine"
INDEX 01 42:40:65
TRACK 13 AUDIO
TITLE "Glory"
PERFORMER "The Scream Of The Guillotine"
INDEX 01 46:03:48
TRACK 14 AUDIO
TITLE "2 Corinthians 5:14-21"
PERFORMER "The Scream Of The Guillotine"
INDEX 01 50:42:35

_________________
Я ненавижу гранж и альтернативную музыку


Top
 Profile E-mail  
 
 
PostPosted: 30 Oct 2013 
Хиппей (support team)
User avatar
Joined: 30 Jul 2007
Posts: 114874
Lоcаtion: Киев (Kyiv, UA)
Age: 46
Name: Andrey
:thanx:

mirror: Narod

_________________


Top
 Profile E-mail  
 
 
PostPosted: 30 Oct 2013 
Прокъмитолист
User avatar
Joined: 12 Aug 2007
Posts: 6623
Lоcаtion: Санктъ-Петербуркъ
Age: 51
Name: Олекъ
спасибо, Серёг! :thanx: :true:

_________________
прокъметол - это музыко, от которово есть прок (ы)


Top
 Profile  
 
 
PostPosted: 30 Oct 2013 
спирт 100%
User avatar
Joined: 22 Sep 2008
Posts: 4474
Age: 48
Name: Саня
Спасибо!!! :thanx:


Top
 Profile  
 
 
PostPosted: 30 Oct 2013 
Хиппей (support team)
User avatar
Joined: 30 Jul 2007
Posts: 114874
Lоcаtion: Киев (Kyiv, UA)
Age: 46
Name: Andrey
Занятная музычка.
Поначалу слушаете трудновато, не собрано как-то. Дальше... еще более запутанно :crazy: Но интересно.

_________________


Top
 Profile E-mail  
 
Display posts from previous:  Sort by  
Post new topic Reply to topic  [ 5 posts ] 

All times are UTC + 3 hours


Who is online

Users browsing this forum: No registered users and 1 guest


You cannot post new topics in this forum
You cannot reply to topics in this forum
You cannot edit your posts in this forum
You cannot delete your posts in this forum
You cannot post attachments in this forum

Search for:
Яндекс.Метрика
Powered by phpBB © 2000, 2002, 2005, 2007 phpBB Group