\m/ 80's metal \m/

Информационно-аналитический форум "80 см пыли" (In Search We Trust) "У нас никто никуда не спешит"
Me For You - http://me-4u.com
It is currently 21 Jul 2019

All times are UTC + 3 hours

Spoiler
Chat - temporary registration for foreign users (please leave your application here)







Post new topic Reply to topic  [ 8 posts ] 
Author Message
 
PostPosted: 16 Oct 2013 
А может смените мне статус?..
Joined: 11 Sep 2010
Posts: 527
Lоcаtion: Тверь
Age: 46
Name: Сергей
Ищу TV In Flames - Drool (1993)ex-Radio Active Cats

Image
1. All Through The Night
2. Whiskey And Women
3. Pocket Full Of Change
4. No Lookin' Back
5. Love In Motion
6. Big Red Train
7. French Kiss
8. Drool
9. Give It Up
10. Jiggle Bones
11. Sin City
12. Who's Sleepin' Outside My Door
http://heavyharmonies.com/cgi-bin/glamc ... Name=Drool


Top
 Profile E-mail  
 
 
PostPosted: 16 Oct 2013 
А может смените мне статус?..
Joined: 11 Sep 2010
Posts: 527
Lоcаtion: Тверь
Age: 46
Name: Сергей
Мучительно качаю АРЕ с рутрекера со скоростью 8-10 кб/с. Боюсь, не дадут скачать полностью.


Top
 Profile E-mail  
 
 
PostPosted: 17 Oct 2013 
А может смените мне статус?..
Joined: 11 Sep 2010
Posts: 527
Lоcаtion: Тверь
Age: 46
Name: Сергей
Вот скачал наконец TV In Flames - Drool (1993) [APE]
http://yadi.sk/d/SHaNL2_gB7H3s
Может кто-нибудь этот АПЕ перевести в мр3(320kb/s)?


Top
 Profile E-mail  
 
 
PostPosted: 17 Oct 2013 
Хиппей (support team)
User avatar
Joined: 30 Jul 2007
Posts: 113573
Lоcаtion: Киев (Kyiv, UA)
Age: 46
Name: Andrey
:shok: http://rutracker.org/forum/viewtopic.php?t=1451748

_________________


Top
 Profile E-mail  
 
 
PostPosted: 17 Oct 2013 
А может смените мне статус?..
Joined: 11 Sep 2010
Posts: 527
Lоcаtion: Тверь
Age: 46
Name: Сергей
TV in Flames - Drool (1993) [320 kbt/s]
http://yadi.sk/d/EFBNE9l_B7Zo9


Top
 Profile E-mail  
 
 
PostPosted: 17 Oct 2013 
Хиппей (support team)
User avatar
Joined: 30 Jul 2007
Posts: 113573
Lоcаtion: Киев (Kyiv, UA)
Age: 46
Name: Andrey
Ну вот =) :thanx:

Запрос можно снимать :lloo: =))

_________________


Top
 Profile E-mail  
 
 
PostPosted: 17 Oct 2013 
Хиппей (support team)
User avatar
Joined: 30 Jul 2007
Posts: 113573
Lоcаtion: Киев (Kyiv, UA)
Age: 46
Name: Andrey
TV in Flames - 1991 - Drool [ape]

mirror: Narod

log
Exact Audio Copy V0.99 prebeta 4 from 23. January 2008

EAC extraction logfile from 6. April 2010, 21:58

TV in Flames / Drool

Used drive : PIONEER DVD-RW DVR-212 Adapter: 5 ID: 0

Read mode : Secure
Utilize accurate stream : Yes
Defeat audio cache : Yes
Make use of C2 pointers : No

Read offset correction : 48
Overread into Lead-In and Lead-Out : No
Fill up missing offset samples with silence : Yes
Delete leading and trailing silent blocks : No
Null samples used in CRC calculations : Yes
Used interface : Native Win32 interface for Win NT & 2000

Used output format : Internal WAV Routines
Sample format : 44.100 Hz; 16 Bit; Stereo


TOC of the extracted CD

Track | Start | Length | Start sector | End sector
---------------------------------------------------------
1 | 0:00.32 | 3:06.33 | 32 | 14014
2 | 3:06.65 | 3:39.52 | 14015 | 30491
3 | 6:46.42 | 4:13.60 | 30492 | 49526
4 | 11:00.27 | 4:09.33 | 49527 | 68234
5 | 15:09.60 | 5:34.42 | 68235 | 93326
6 | 20:44.27 | 3:50.20 | 93327 | 110596
7 | 24:34.47 | 4:43.65 | 110597 | 131886
8 | 29:18.37 | 2:13.43 | 131887 | 141904
9 | 31:32.05 | 3:33.55 | 141905 | 157934
10 | 35:05.60 | 3:58.20 | 157935 | 175804
11 | 39:04.05 | 3:48.72 | 175805 | 192976
12 | 42:53.02 | 5:41.55 | 192977 | 218606


Range status and errors

Selected range

Filename D:\temp\TV in Flames - Drool.wav

Peak level 100.0 %
Range quality 100.0 %
Copy CRC 0E905913
Copy OK

No errors occurred


AccurateRip summary

Track 1 accurately ripped (confidence 1) [623C6B39]
Track 2 accurately ripped (confidence 1) [5C7A0510]
Track 3 accurately ripped (confidence 1) [56CB974F]
Track 4 accurately ripped (confidence 1) [2A6DCECA]
Track 5 accurately ripped (confidence 1) [8C481B85]
Track 6 accurately ripped (confidence 1) [D0730296]
Track 7 accurately ripped (confidence 1) [E1207129]
Track 8 accurately ripped (confidence 1) [55D98F57]
Track 9 accurately ripped (confidence 1) [0BA7D78B]
Track 10 accurately ripped (confidence 1) [869E4D65]
Track 11 cannot be verified as accurate (confidence 1) [0979E07D], AccurateRip returned [FAA68706]
Track 12 cannot be verified as accurate (confidence 1) [890E00DB], AccurateRip returned [17AAE223]

0 track(s) accurately ripped
2 track(s) could not be verified as accurate

Some tracks could not be verified as accurate

End of status report

cue
REM DATE 1993
REM DISCID A70B620C
REM COMMENT "ExactAudioCopy v0.99pb4"
CATALOG 0075994536828
PERFORMER "TV in Flames"
TITLE "Drool"
FILE "TV in Flames - Drool.ape" WAVE
TRACK 01 AUDIO
TITLE "All Through the Night"
PERFORMER "TV in Flames"
INDEX 00 00:00:00
INDEX 01 00:00:32
TRACK 02 AUDIO
TITLE "Whiskey & Women"
PERFORMER "TV in Flames"
INDEX 00 03:05:68
INDEX 01 03:06:65
TRACK 03 AUDIO
TITLE "Pocket Full of Change"
PERFORMER "TV in Flames"
INDEX 00 06:45:50
INDEX 01 06:46:42
TRACK 04 AUDIO
TITLE "No Lookin' Back"
PERFORMER "TV in Flames"
INDEX 00 10:59:30
INDEX 01 11:00:27
TRACK 05 AUDIO
TITLE "Love in Motion"
PERFORMER "TV in Flames"
INDEX 00 15:08:30
INDEX 01 15:09:60
TRACK 06 AUDIO
TITLE "Big Red Train"
PERFORMER "TV in Flames"
INDEX 00 20:42:73
INDEX 01 20:44:27
TRACK 07 AUDIO
TITLE "French Kiss"
PERFORMER "TV in Flames"
INDEX 00 24:34:03
INDEX 01 24:34:47
TRACK 08 AUDIO
TITLE "Drool"
PERFORMER "TV in Flames"
INDEX 00 29:17:05
INDEX 01 29:18:37
TRACK 09 AUDIO
TITLE "Give It Up"
PERFORMER "TV in Flames"
INDEX 00 31:30:30
INDEX 01 31:32:05
TRACK 10 AUDIO
TITLE "Jiggle Bones"
PERFORMER "TV in Flames"
INDEX 00 35:04:43
INDEX 01 35:05:60
TRACK 11 AUDIO
TITLE "Sin City"
PERFORMER "TV in Flames"
INDEX 00 39:03:20
INDEX 01 39:04:05
TRACK 12 AUDIO
TITLE "Who's Sleepin' Outside My Door"
PERFORMER "TV in Flames"
INDEX 00 42:51:48
INDEX 01 42:53:02


Image

_________________


Top
 Profile E-mail  
 
 
PostPosted: 17 Oct 2013 
Хиппей (support team)
User avatar
Joined: 30 Jul 2007
Posts: 113573
Lоcаtion: Киев (Kyiv, UA)
Age: 46
Name: Andrey
Молодёжный Glam Hard Rock с сильными, но уместными блюзовыми инфлюенциями.
Хороший альбом, но валит в сон временами :oops:

_________________


Top
 Profile E-mail  
 
Display posts from previous:  Sort by  
Post new topic Reply to topic  [ 8 posts ] 

All times are UTC + 3 hours


Who is online

Users browsing this forum: No registered users and 1 guest


You cannot post new topics in this forum
You cannot reply to topics in this forum
You cannot edit your posts in this forum
You cannot delete your posts in this forum
You cannot post attachments in this forum

Search for:
Яндекс.Метрика
Powered by phpBB © 2000, 2002, 2005, 2007 phpBB Group