\m/ 80's metal \m/

Информационно-аналитический форум "80 см пыли" (In Search We Trust) "У нас никто никуда не спешит"
Me For You - http://me-4u.com
It is currently 21 Jul 2019

All times are UTC + 3 hours

Spoiler
Chat - temporary registration for foreign users (please leave your application here)







Post new topic Reply to topic  [ 14 posts ] 

Германия
Может у кого есть? 50%  50%  [ 1 ]
В сети мелькал 50%  50%  [ 1 ]
Total votes : 2
Author Message
 
PostPosted: 27 Apr 2013 
10cm
User avatar
Joined: 12 Jun 2012
Posts: 75
Lоcаtion: Псков
Age: 49
Name: Сергей
http://www.metal-archives.com/albums/Taraxacum/Rainmaker/23356
Image
01. Disfunctional 04:02
02. Prayer In Unison 04:22
03. Rainmaker 04:32
04. Never to Return 04:24
05. Make It Happen 04:25
06. Wake Up 04:50
07. If I Had Known 04:35
08. Game Over 04:48
09. Dark Sunglasses 04:43
10. The Red Pill 05:13
11. In the End 05:26
12. Lo Que Falto 04:35

_________________
надо,и на одной ноге выстоим!


Top
 Profile E-mail  
 
 
PostPosted: 27 Apr 2013 
10cm
User avatar
Joined: 12 Jun 2012
Posts: 75
Lоcаtion: Псков
Age: 49
Name: Сергей
рекс писал-почему то опросом вышло??? :shok:
В сети мелькал,но все битое сейчас,бывает только непонятного свойства тракс+куй,без сканов
может ребята у кого есть в архиве?

_________________
надо,и на одной ноге выстоим!


Top
 Profile E-mail  
 
 
PostPosted: 27 Apr 2013 
10cm
User avatar
Joined: 12 Jun 2012
Posts: 75
Lоcаtion: Псков
Age: 49
Name: Сергей
нашёл,спасибо!!! :true:

_________________
надо,и на одной ноге выстоим!


Top
 Profile E-mail  
 
 
PostPosted: 29 Apr 2013 
Доктор энтомологии
User avatar
Joined: 22 Jan 2009
Posts: 9805
Lоcаtion: Даугавпилс
Age: 44
Name: Алексей
Taraxacum - po latyni znachit ~Oduvanchik~ :umnik:


Top
 Profile  
 
 
PostPosted: 15 May 2013 
Работнечег
User avatar
Joined: 28 Aug 2007
Posts: 5919
Lоcаtion: г. Москва
Age: 30
Name: Дима
Отлично, тогда можно рекс убирать ;)


Top
 Profile E-mail  
 
 
PostPosted: 02 Jul 2013 
Хиппей (support team)
User avatar
Joined: 30 Jul 2007
Posts: 113573
Lоcаtion: Киев (Kyiv, UA)
Age: 46
Name: Andrey
Мдя...
А ссылку на откуда скачать лося оставить мона ж было? :fingal:

http://rutracker.org/forum/viewtopic.php?t=1598695

Рекс снят. На днях перезалью жывотноеъ :esel:

_________________


Top
 Profile E-mail  
 
 
PostPosted: 02 Jul 2013 
Хиппей (support team)
User avatar
Joined: 30 Jul 2007
Posts: 113573
Lоcаtion: Киев (Kyiv, UA)
Age: 46
Name: Andrey
pisarevs wrote:
рекс писал-почему то опросом вышло???

Дык, закусывать нуна правильно :drynk:

_________________


Top
 Profile E-mail  
 
 
PostPosted: 26 Mar 2014 
Хиппей (support team)
User avatar
Joined: 30 Jul 2007
Posts: 113573
Lоcаtion: Киев (Kyiv, UA)
Age: 46
Name: Andrey
Taraxacum - 2003 - Rainmaker [flacs]

Image

mirror: Narod l M-Cloud

Альбом нежданно оказался не только звездат, но и хитов и хрен снова поймешь, участвует ли в вокальных партиях девушка или мальчик :crazy:
По стилистике это явно Power Melodic Metal/ Progressive Metal. Как-то так... :vic:

7/10

Ибо мощно, мелодично и до сих пор свежо :true:

log
Exact Audio Copy V0.99 prebeta 3 from 28. July 2007

EAC extraction logfile from 15. June 2008, 20:00

Taraxacum / Spirit Of Freedom

Used drive : PIONEER DVD-RW DVR-111D Adapter: 0 ID: 0

Read mode : Secure
Utilize accurate stream : Yes
Defeat audio cache : Yes
Make use of C2 pointers : No

Read offset correction : 48
Overread into Lead-In and Lead-Out : No
Fill up missing offset samples with silence : Yes
Delete leading and trailing silent blocks : No
Null samples used in CRC calculations : Yes
Used interface : Native Win32 interface for Win NT & 2000
Gap handling : Appended to previous track

Used output format : User Defined Encoder
Selected bitrate : 192 kBit/s
Quality : High
Add ID3 tag : No
Command line compressor : D:\UTIL\flac-1.2.1-win\bin\flac.exe
Additional command line options : -V -8 -T "artist=%a" -T "title=%t" -T "album=%g" -T "date=%y" -T "tracknumber=%n" -T "genre=%m" %s


TOC of the extracted CD

Track | Start | Length | Start sector | End sector
---------------------------------------------------------
1 | 0:00.00 | 4:54.04 | 0 | 22053
2 | 4:54.04 | 5:33.59 | 22054 | 47087
3 | 10:27.63 | 5:16.10 | 47088 | 70797
4 | 15:43.73 | 4:47.47 | 70798 | 92369
5 | 20:31.45 | 6:00.69 | 92370 | 119438
6 | 26:32.39 | 5:38.16 | 119439 | 144804
7 | 32:10.55 | 4:15.35 | 144805 | 163964
8 | 36:26.15 | 6:21.62 | 163965 | 192601
9 | 42:48.02 | 4:25.26 | 192602 | 212502


Track 1

Filename H:\01 - Spirit Of Freedom.wav

Pre-gap length 0:00:02.00

Peak level 99.9 %
Track quality 100.0 %
Test CRC 17758EE8
Copy CRC 17758EE8
Copy OK

Track 2

Filename H:\02 - Blast Off.wav

Peak level 94.4 %
Track quality 100.0 %
Test CRC AF8D4C29
Copy CRC AF8D4C29
Copy OK

Track 3

Filename H:\03 - Alone.wav

Pre-gap length 0:00:00.49

Peak level 87.8 %
Track quality 99.9 %
Test CRC 4FE9E27A
Copy CRC 4FE9E27A
Copy OK

Track 4

Filename H:\04 - Circle Of Fools.wav

Pre-gap length 0:00:00.93

Peak level 98.5 %
Track quality 100.0 %
Test CRC 1E61C0B1
Copy CRC 1E61C0B1
Copy OK

Track 5

Filename H:\05 - Delirium.wav

Pre-gap length 0:00:00.69

Peak level 96.6 %
Track quality 100.0 %
Test CRC 86DB638A
Copy CRC 86DB638A
Copy OK

Track 6

Filename H:\06 - Life Goes On.wav

Pre-gap length 0:00:00.74

Peak level 94.4 %
Track quality 100.0 %
Test CRC 7BB7AC00
Copy CRC 7BB7AC00
Copy OK

Track 7

Filename H:\07 - Never Let You Go.wav

Peak level 97.3 %
Track quality 100.0 %
Test CRC AB047027
Copy CRC AB047027
Copy OK

Track 8

Filename H:\08 - Belive In You.wav

Pre-gap length 0:00:01.13

Peak level 92.2 %
Track quality 100.0 %
Test CRC 521526BF
Copy CRC 521526BF
Copy OK

Track 9

Filename H:\09 - Think!.wav

Pre-gap length 0:00:01.48

Peak level 94.4 %
Track quality 99.9 %
Test CRC 9D8CAF00
Copy CRC 9D8CAF00
Copy OK

No errors occurred

End of status report

cue
REM GENRE "Power Metal"
REM DATE 2001
REM DISCID 820B1109
REM COMMENT "ExactAudioCopy v0.99pb3"
PERFORMER "Taraxacum"
TITLE "Spirit Of Freedom"
FILE "01 - Spirit Of Freedom.wav" WAVE
TRACK 01 AUDIO
TITLE "Spirit Of Freedom"
PERFORMER "Taraxacum"
INDEX 01 00:00:00
FILE "02 - Blast Off.wav" WAVE
TRACK 02 AUDIO
TITLE "Blast Off"
PERFORMER "Taraxacum"
FLAGS DCP
INDEX 01 00:00:00
TRACK 03 AUDIO
TITLE "Alone"
PERFORMER "Taraxacum"
FLAGS DCP
INDEX 00 05:33:22
FILE "03 - Alone.wav" WAVE
INDEX 01 00:00:00
TRACK 04 AUDIO
TITLE "Circle Of Fools"
PERFORMER "Taraxacum"
FLAGS DCP
INDEX 00 05:15:15
FILE "04 - Circle Of Fools.wav" WAVE
INDEX 01 00:00:00
TRACK 05 AUDIO
TITLE "Delirium"
PERFORMER "Taraxacum"
FLAGS DCP
INDEX 00 04:46:70
FILE "05 - Delirium.wav" WAVE
INDEX 01 00:00:00
TRACK 06 AUDIO
TITLE "Life Goes On"
PERFORMER "Taraxacum"
FLAGS DCP
INDEX 00 06:00:13
FILE "06 - Life Goes On.wav" WAVE
INDEX 01 00:00:00
FILE "07 - Never Let You Go.wav" WAVE
TRACK 07 AUDIO
TITLE "Never Let You Go"
PERFORMER "Taraxacum"
FLAGS DCP
INDEX 01 00:00:00
TRACK 08 AUDIO
TITLE "Belive In You"
PERFORMER "Taraxacum"
FLAGS DCP
INDEX 00 04:14:25
FILE "08 - Belive In You.wav" WAVE
INDEX 01 00:00:00
TRACK 09 AUDIO
TITLE "Think!"
PERFORMER "Taraxacum"
FLAGS DCP
INDEX 00 06:20:26
FILE "09 - Think!.wav" WAVE
INDEX 01 00:00:00

_________________


Top
 Profile E-mail  
 
 
PostPosted: 26 Mar 2014 
ТрэшЭрос
User avatar
Joined: 18 Jul 2011
Posts: 2303
Lоcаtion: Гулькевичи
Age: 44
Name: Александр
:thanx: слухану на досуге :true:

_________________
Thrash no trash!!!


Top
 Profile E-mail  
 
 
PostPosted: 26 Mar 2014 
Хиппей (support team)
User avatar
Joined: 30 Jul 2007
Posts: 113573
Lоcаtion: Киев (Kyiv, UA)
Age: 46
Name: Andrey
Воть, к примеру, сразу понятно вам, кто здесь поёт - мальчик или деачка? :lloo:

phpBB [youtube]

_________________


Top
 Profile E-mail  
 
 
PostPosted: 26 Mar 2014 
Хиппей (support team)
User avatar
Joined: 30 Jul 2007
Posts: 113573
Lоcаtion: Киев (Kyiv, UA)
Age: 46
Name: Andrey
Taraxacum - 2001 - Spirit Of Freedom [flacs]

Image

mirror: M-Cloud l Narod


log
Exact Audio Copy V0.99 prebeta 3 from 28. July 2007

EAC extraction logfile from 15. June 2008, 20:00

Taraxacum / Spirit Of Freedom

Used drive : PIONEER DVD-RW DVR-111D Adapter: 0 ID: 0

Read mode : Secure
Utilize accurate stream : Yes
Defeat audio cache : Yes
Make use of C2 pointers : No

Read offset correction : 48
Overread into Lead-In and Lead-Out : No
Fill up missing offset samples with silence : Yes
Delete leading and trailing silent blocks : No
Null samples used in CRC calculations : Yes
Used interface : Native Win32 interface for Win NT & 2000
Gap handling : Appended to previous track

Used output format : User Defined Encoder
Selected bitrate : 192 kBit/s
Quality : High
Add ID3 tag : No
Command line compressor : D:\UTIL\flac-1.2.1-win\bin\flac.exe
Additional command line options : -V -8 -T "artist=%a" -T "title=%t" -T "album=%g" -T "date=%y" -T "tracknumber=%n" -T "genre=%m" %s


TOC of the extracted CD

Track | Start | Length | Start sector | End sector
---------------------------------------------------------
1 | 0:00.00 | 4:54.04 | 0 | 22053
2 | 4:54.04 | 5:33.59 | 22054 | 47087
3 | 10:27.63 | 5:16.10 | 47088 | 70797
4 | 15:43.73 | 4:47.47 | 70798 | 92369
5 | 20:31.45 | 6:00.69 | 92370 | 119438
6 | 26:32.39 | 5:38.16 | 119439 | 144804
7 | 32:10.55 | 4:15.35 | 144805 | 163964
8 | 36:26.15 | 6:21.62 | 163965 | 192601
9 | 42:48.02 | 4:25.26 | 192602 | 212502


Track 1

Filename H:\01 - Spirit Of Freedom.wav

Pre-gap length 0:00:02.00

Peak level 99.9 %
Track quality 100.0 %
Test CRC 17758EE8
Copy CRC 17758EE8
Copy OK

Track 2

Filename H:\02 - Blast Off.wav

Peak level 94.4 %
Track quality 100.0 %
Test CRC AF8D4C29
Copy CRC AF8D4C29
Copy OK

Track 3

Filename H:\03 - Alone.wav

Pre-gap length 0:00:00.49

Peak level 87.8 %
Track quality 99.9 %
Test CRC 4FE9E27A
Copy CRC 4FE9E27A
Copy OK

Track 4

Filename H:\04 - Circle Of Fools.wav

Pre-gap length 0:00:00.93

Peak level 98.5 %
Track quality 100.0 %
Test CRC 1E61C0B1
Copy CRC 1E61C0B1
Copy OK

Track 5

Filename H:\05 - Delirium.wav

Pre-gap length 0:00:00.69

Peak level 96.6 %
Track quality 100.0 %
Test CRC 86DB638A
Copy CRC 86DB638A
Copy OK

Track 6

Filename H:\06 - Life Goes On.wav

Pre-gap length 0:00:00.74

Peak level 94.4 %
Track quality 100.0 %
Test CRC 7BB7AC00
Copy CRC 7BB7AC00
Copy OK

Track 7

Filename H:\07 - Never Let You Go.wav

Peak level 97.3 %
Track quality 100.0 %
Test CRC AB047027
Copy CRC AB047027
Copy OK

Track 8

Filename H:\08 - Belive In You.wav

Pre-gap length 0:00:01.13

Peak level 92.2 %
Track quality 100.0 %
Test CRC 521526BF
Copy CRC 521526BF
Copy OK

Track 9

Filename H:\09 - Think!.wav

Pre-gap length 0:00:01.48

Peak level 94.4 %
Track quality 99.9 %
Test CRC 9D8CAF00
Copy CRC 9D8CAF00
Copy OK

No errors occurred

End of status report

cue
REM GENRE "Power Metal"
REM DATE 2001
REM DISCID 820B1109
REM COMMENT "ExactAudioCopy v0.99pb3"
PERFORMER "Taraxacum"
TITLE "Spirit Of Freedom"
FILE "01 - Spirit Of Freedom.wav" WAVE
TRACK 01 AUDIO
TITLE "Spirit Of Freedom"
PERFORMER "Taraxacum"
INDEX 01 00:00:00
FILE "02 - Blast Off.wav" WAVE
TRACK 02 AUDIO
TITLE "Blast Off"
PERFORMER "Taraxacum"
FLAGS DCP
INDEX 01 00:00:00
TRACK 03 AUDIO
TITLE "Alone"
PERFORMER "Taraxacum"
FLAGS DCP
INDEX 00 05:33:22
FILE "03 - Alone.wav" WAVE
INDEX 01 00:00:00
TRACK 04 AUDIO
TITLE "Circle Of Fools"
PERFORMER "Taraxacum"
FLAGS DCP
INDEX 00 05:15:15
FILE "04 - Circle Of Fools.wav" WAVE
INDEX 01 00:00:00
TRACK 05 AUDIO
TITLE "Delirium"
PERFORMER "Taraxacum"
FLAGS DCP
INDEX 00 04:46:70
FILE "05 - Delirium.wav" WAVE
INDEX 01 00:00:00
TRACK 06 AUDIO
TITLE "Life Goes On"
PERFORMER "Taraxacum"
FLAGS DCP
INDEX 00 06:00:13
FILE "06 - Life Goes On.wav" WAVE
INDEX 01 00:00:00
FILE "07 - Never Let You Go.wav" WAVE
TRACK 07 AUDIO
TITLE "Never Let You Go"
PERFORMER "Taraxacum"
FLAGS DCP
INDEX 01 00:00:00
TRACK 08 AUDIO
TITLE "Belive In You"
PERFORMER "Taraxacum"
FLAGS DCP
INDEX 00 04:14:25
FILE "08 - Belive In You.wav" WAVE
INDEX 01 00:00:00
TRACK 09 AUDIO
TITLE "Think!"
PERFORMER "Taraxacum"
FLAGS DCP
INDEX 00 06:20:26
FILE "09 - Think!.wav" WAVE
INDEX 01 00:00:00

_________________


Top
 Profile E-mail  
 
 
PostPosted: 27 Mar 2014 
ТрэшЭрос
User avatar
Joined: 18 Jul 2011
Posts: 2303
Lоcаtion: Гулькевичи
Age: 44
Name: Александр
:thanx:

_________________
Thrash no trash!!!


Top
 Profile E-mail  
 
 
PostPosted: 27 Mar 2014 
Partisanen - nicht kapitulieren!!
User avatar
Joined: 25 Dec 2011
Posts: 7051
Lоcаtion: партизанские леса
Age: 46
Name: Владимир
Офигенский групешник! :true: Мне вот эта пестня очень нравится -
Taraxacum - Dark Sunglasses
phpBB [youtube]


отзеркалю - Taraxacum

_________________
One more beer and Heavy Metal and I'm just fine!
старовер, куле... слово "блин" - до сих пор через Ъ говорю


Top
 Profile E-mail  
 
 
PostPosted: 27 Mar 2014 
Хиппей (support team)
User avatar
Joined: 30 Jul 2007
Posts: 113573
Lоcаtion: Киев (Kyiv, UA)
Age: 46
Name: Andrey
Первый альбом немного загадочный...
Или я его никак не пойму :vic:

_________________


Top
 Profile E-mail  
 
Display posts from previous:  Sort by  
Post new topic Reply to topic  [ 14 posts ] 

All times are UTC + 3 hours


Who is online

Users browsing this forum: No registered users and 1 guest


You cannot post new topics in this forum
You cannot reply to topics in this forum
You cannot edit your posts in this forum
You cannot delete your posts in this forum
You cannot post attachments in this forum

Search for:
Яндекс.Метрика
cron
Powered by phpBB © 2000, 2002, 2005, 2007 phpBB Group