\m/ 80's metal \m/

Информационно-аналитический форум "80 см пыли" (In Search We Trust) "У нас никто никуда не спешит"
Me For You - http://me-4u.com
It is currently 18 Oct 2019

All times are UTC + 3 hours

Spoiler
Chat - temporary registration for foreign users (please leave your application here)







Post new topic Reply to topic  [ 10 posts ] 
Author Message
 
PostPosted: 12 Apr 2013 
Генеральный thrasher
User avatar
Joined: 03 Oct 2008
Posts: 3738
Lоcаtion: Ханты-Мансийский АО
Age: 44
Name: Сергей
Image

Album:Pornography
Year:1989 (2008 Re-Issue)
Style:Thrash Metal
Country:Brazil
Audio:Flac+Cue+Log+Scans
Size:451Mb
Source:my CD
Label:Marquee Records

Line-Up:
Jeziel de Oliveira - vocals,guitars
Cláudio Bezz - guitars
Sérgio Bezz - drums
Jean - bass

Tracklist:
01. What You Say 04:11
02. Caustic Brains 03:32
03. Pornography 04:13
04. Why Can´t We Talk 04:46
05. Born To Die 02:00
06. Brainless 02:58
07. Voices In The Void 04:47
08. Denied Ways 05:36
09. This Kind Of People 02:48
Bonus Tracks
10. Pornography - Live In Rio 2007 04:30
11. Caustic Brains - Live Rehearsal 2007 03:39
12. Signo De Taurus - Mundo Em Alerta - Live São Paulo 2007 04:30
13. Instrumental [1992] 05:28
14. Why Can´t we Talk - Live In Rio [1992] 05:01
15. Falsos Comandos - Live Belo Horizonte 2007 06:35

"Cue"
REM GENRE "Thrash Metal"
REM DATE 2008
REM DISCID B90F440F
REM COMMENT "ExactAudioCopy v0.99pb5"
PERFORMER "Taurus"
TITLE "Pornography"
FILE "Taurus - Pornography.flac" WAVE
TRACK 01 AUDIO
TITLE "Watch You Say"
PERFORMER "Taurus"
FLAGS PRE
INDEX 01 00:00:00
TRACK 02 AUDIO
TITLE "Caustic Brains"
PERFORMER "Taurus"
FLAGS PRE
INDEX 00 04:11:67
INDEX 01 04:13:67
TRACK 03 AUDIO
TITLE "Pornography"
PERFORMER "Taurus"
FLAGS PRE
INDEX 00 07:46:32
INDEX 01 07:48:32
TRACK 04 AUDIO
TITLE "Why Can't We Talk"
PERFORMER "Taurus"
FLAGS PRE
INDEX 00 12:01:53
INDEX 01 12:03:53
TRACK 05 AUDIO
TITLE "Born to Die"
PERFORMER "Taurus"
FLAGS PRE
INDEX 00 16:49:69
INDEX 01 16:51:69
TRACK 06 AUDIO
TITLE "Brainless"
PERFORMER "Taurus"
FLAGS PRE
INDEX 00 18:52:19
INDEX 01 18:54:19
TRACK 07 AUDIO
TITLE "Voices in the Void"
PERFORMER "Taurus"
FLAGS PRE
INDEX 00 21:52:52
INDEX 01 21:54:52
TRACK 08 AUDIO
TITLE "Denied Ways"
PERFORMER "Taurus"
FLAGS PRE
INDEX 00 26:42:28
INDEX 01 26:44:28
TRACK 09 AUDIO
TITLE "This Kind of People"
PERFORMER "Taurus"
FLAGS PRE
INDEX 00 32:21:16
INDEX 01 32:23:16
TRACK 10 AUDIO
TITLE "Pornography - Live In Rio 2007"
PERFORMER "Taurus"
FLAGS PRE
INDEX 00 35:11:27
INDEX 01 35:13:27
TRACK 11 AUDIO
TITLE "Caustic Brains - Live Rehearsal 2007"
PERFORMER "Taurus"
FLAGS PRE
INDEX 00 39:43:42
INDEX 01 39:45:42
TRACK 12 AUDIO
TITLE "Signo De Taurus - Mundo Em Alerta - Live São Paulo 2007"
PERFORMER "Taurus"
FLAGS PRE
INDEX 00 43:25:24
INDEX 01 43:27:24
TRACK 13 AUDIO
TITLE "Instrumental [1992]"
PERFORMER "Taurus"
FLAGS PRE
INDEX 00 47:57:28
INDEX 01 47:59:28
TRACK 14 AUDIO
TITLE "Why Can´t we Talk - Live In Rio [1992]"
PERFORMER "Taurus"
FLAGS PRE
INDEX 00 53:28:19
INDEX 01 53:30:19
TRACK 15 AUDIO
TITLE "Falsos Comandos - Live Belo Horizonte 2007"
PERFORMER "Taurus"
FLAGS PRE
INDEX 00 58:31:67
INDEX 01 58:33:67

"Log"
Exact Audio Copy V0.99 prebeta 5 from 4. May 2009

Отчёт EAC об извлечении, выполненном 7. апреля 2013, 11:46

Taurus / Pornography

Дисковод: MATSHITADVD-RAM UJ8A0AS Adapter: 0 ID: 1

Режим чтения : Достоверность
Использование точного потока : Да
Отключение кэша аудио : Да
Использование указателей C2 : Нет

Коррекция смещения при чтении : 102
Способность читать области Lead-in и Lead-out : Нет
Заполнение пропущенных сэмплов тишиной : Да
Удаление блоков с тишиной в начале и конце : Нет
При вычислениях CRC использовались нулевые сэмплы : Да
Интерфейс : Встроенный Win32-интерфейс для Win NT/2000

Выходной формат : Пользовательский кодировщик
Выбранный битрейт : 1024 kBit/s
Качество : Высокий
Добавление ID3-тэга : Нет
Утилита сжатия : C:\Program Files\Exact Audio Copy\FLAC\FLAC.EXE
Дополнительные параметры : -6 -V -T "ARTIST=%a" -T "TITLE=%t" -T "ALBUM=%g" -T "DATE=%y" -T "TRACKNUMBER=%n" -T "GENRE=%m" -T "COMMENT=%e" %s -o %d


TOC извлечённого CD

Трек | Старт | Длительность | Начальный сектор | Конечный сектор
---------------------------------------------------------------------
1 | 0:00.00 | 4:13.67 | 0 | 19041
2 | 4:13.67 | 3:34.40 | 19042 | 35131
3 | 7:48.32 | 4:15.21 | 35132 | 54277
4 | 12:03.53 | 4:48.16 | 54278 | 75893
5 | 16:51.69 | 2:02.25 | 75894 | 85068
6 | 18:54.19 | 3:00.33 | 85069 | 98601
7 | 21:54.52 | 4:49.51 | 98602 | 120327
8 | 26:44.28 | 5:38.63 | 120328 | 145740
9 | 32:23.16 | 2:50.11 | 145741 | 158501
10 | 35:13.27 | 4:32.15 | 158502 | 178916
11 | 39:45.42 | 3:41.57 | 178917 | 195548
12 | 43:27.24 | 4:32.04 | 195549 | 215952
13 | 47:59.28 | 5:30.66 | 215953 | 240768
14 | 53:30.19 | 5:03.48 | 240769 | 263541
15 | 58:33.67 | 6:35.02 | 263542 | 293168


Характеристики диапазона извлечения и сообщения об ошибках

Выбранный диапазон

Имя файла C:\Users\эксперт\Music\Taurus - Pornography.wav

Пиковый уровень 99.9 %
Качество диапазона 100.0 %
CRC копии 021A5238
Копирование... OK

Ошибок не произошло


AccurateRip: сводка

Трек 1 нет в базе данных
Трек 2 нет в базе данных
Трек 3 нет в базе данных
Трек 4 нет в базе данных
Трек 5 нет в базе данных
Трек 6 нет в базе данных
Трек 7 нет в базе данных
Трек 8 нет в базе данных
Трек 9 нет в базе данных
Трек 10 нет в базе данных
Трек 11 нет в базе данных
Трек 12 нет в базе данных
Трек 13 нет в базе данных
Трек 14 нет в базе данных
Трек 15 нет в базе данных

Ни одного трека нет в базе AccurateRip

Конец отчёта


Pornography


Top
 Profile  
 
 
PostPosted: 12 Apr 2013 
Old Time Rock`n`Roll
User avatar
Joined: 23 Jun 2008
Posts: 3490
Warnings: 1
Lоcаtion: г.Ульяновск
Age: 41
Name: Константин
:thanx:


Top
 Profile  
 
 
PostPosted: 21 Apr 2013 
Работнечег
User avatar
Joined: 28 Aug 2007
Posts: 6033
Lоcаtion: г. Москва
Age: 30
Name: Дима
:true: :true: :true:


Top
 Profile E-mail  
 
 
PostPosted: 21 Apr 2013 
Хиппей (support team)
User avatar
Joined: 30 Jul 2007
Posts: 114899
Lоcаtion: Киев (Kyiv, UA)
Age: 46
Name: Andrey
:thanx:

mirror: F-Bit l Narod

_________________


Top
 Profile E-mail  
 
 
PostPosted: 23 Apr 2013 
Хиппей (support team)
User avatar
Joined: 30 Jul 2007
Posts: 114899
Lоcаtion: Киев (Kyiv, UA)
Age: 46
Name: Andrey
Как обычно уже случается, альбом дался непросто :vic:
Так уж вышло, что поставил слушать в плеере на ночь, да и только второй части релиза напялил на себя наушники и... услышал нечто несуразное, аляповатое и с диким качеством звука.
Эко какой звук трушный, - подумал я, и какой акцент иностранно-латино-американский, - подумал дальше я... :fingal:
Дальше подумал, что пора спать, и уснул в наушниках, обняв, как позже выяснилось, кота за хвост. Кот отполз явно спустя пару минут, оставив на ладони несколько частей своего меха. Весна...
Утром проснулся и первым делом подумал - опа, так это ж трэш :kz:
Начал усердно и усиленно слушать альбом...
Звук фуфло, но истина в вине и кофе, потому решено было, что альбом записывался примерно в 85-86-м годах.
Помню, что на форуме это вроде как переиздание было. Подсмотрел, ага, точно, год выпуска альбома - 1989, оттого и звук той поры. То есть, грязновато-плоский, но трушный. В духе Метлы-83, Слайера того же года и почти всех альбомов от Possessed.
На поверку же "Тарас" оказался весьма достойной группой, нарезающей добротный и почти техничный трэшак с некоторым влиянием ранних Metalllica & Testament. Но и своего колорита хватает. Чего-то ст0ит только вокал, поющий уже на английском, но... еще не совсем :oops:

Пример сразу: http://www.youtube.com/watch?feature=pl ... QQ#t=1322s

По той ссылке можно и весь альбом оригинальный послушать, если что.

Резюме:
Релиз весьма хорош, адекватен и трушен, если не заморачиваться ушами на звуке и бонусах.
Кстати, бонусы в виде заловых вещей тоже весьма понравились :meloman:

6+/10

Image

_________________


Top
 Profile E-mail  
 
 
PostPosted: 23 Apr 2013 
дядя Миша
User avatar
Joined: 17 Oct 2008
Posts: 3190
Lоcаtion: USSR
Age: 57
Name: Khy
Альбом хорош :true: Слушал давненько .
Андрюха, послушай, пришло по моему время тебе раскусить Mayhem - 1994 - De mysteriis dom sathanas :true:


Top
 Profile  
 
 
PostPosted: 23 Apr 2013 
Хиппей (support team)
User avatar
Joined: 30 Jul 2007
Posts: 114899
Lоcаtion: Киев (Kyiv, UA)
Age: 46
Name: Andrey
Миш, ну я его знаю весьма неплохо. Не моё, примитивно ж очень :esel:
Хотя, спустя годы попробую еще несколько раз послушать :pardon:
Не щас, конечно, затем, как-нибудь, когда вообще нечего будет слушать :oops:

_________________


Top
 Profile E-mail  
 
 
PostPosted: 24 Apr 2013 
Генеральный thrasher
User avatar
Joined: 03 Oct 2008
Posts: 3738
Lоcаtion: Ханты-Мансийский АО
Age: 44
Name: Сергей
Андрюха,я вижу,ты понемногу вьезжаешь в Taurus.Мне они безоговорочно нравятся...Как и MX.Бразильские банды хороши своим наивным саундом и плохим английским... :true:


Top
 Profile  
 
 
PostPosted: 12 Jul 2013 
Хиппей (support team)
User avatar
Joined: 30 Jul 2007
Posts: 114899
Lоcаtion: Киев (Kyiv, UA)
Age: 46
Name: Andrey
thorbeorn wrote:
Бразильские банды хороши своим наивным саундом и плохим английским...

Ога =) Который проговаривают намного чётче и от того нам его и понять легче :true:

_________________


Top
 Profile E-mail  
 
 
PostPosted: 12 Jul 2013 
Генеральный thrasher
User avatar
Joined: 03 Oct 2008
Posts: 3738
Lоcаtion: Ханты-Мансийский АО
Age: 44
Name: Сергей
thorbeorn wrote:
Бразильские банды хороши своим наивным саундом и плохим английским...

Ога =) Который проговаривают намного чётче и от того нам его и понять легче :true:


Ну как-то так :crazy:


Top
 Profile  
 
Display posts from previous:  Sort by  
Post new topic Reply to topic  [ 10 posts ] 

All times are UTC + 3 hours


Who is online

Users browsing this forum: No registered users and 2 guests


You cannot post new topics in this forum
You cannot reply to topics in this forum
You cannot edit your posts in this forum
You cannot delete your posts in this forum
You cannot post attachments in this forum

Search for:
Яндекс.Метрика
Powered by phpBB © 2000, 2002, 2005, 2007 phpBB Group