\m/ 80's metal \m/

Информационно-аналитический форум "80 см пыли" (In Search We Trust) "У нас никто никуда не спешит"
Me For You - http://me-4u.com
It is currently 18 Oct 2019

All times are UTC + 3 hours

Spoiler
Chat - temporary registration for foreign users (please leave your application here)







Post new topic Reply to topic  [ 3 posts ] 
Author Message
 
PostPosted: 16 Feb 2013 
А может смените мне статус?..
User avatar
Joined: 22 Nov 2008
Posts: 973
Lоcаtion: Schelcovo,Russia
Age: 48
Name: Сергей
Image

T-Ride - T-Ride (1992) Reissue 2008 Krescendo Records

01. Zombies from Hell
02. Backdoor Romeo
03. Ride
04. You and Your Friend
05. I Hunger
06. Luxury Cruiser
07. Hit Squad
08. Bad Girls and Angels
09. Bone Down
10. Fire It Up
11. Heroes and Villains

Dan Arlie - Vocals / Bass
Jeff Tyson - Guitar
Eric Valentine - Drums

"log"
Отчёт EAC об извлечении, выполненном 16. февраля 2013, 11:20 для диска:
T-Ride / T-Ride

Дисковод: HL-DT-STDVDRAM GT32N Adapter: 0 ID: 1
Режим чтения: Скоростной
Коррекция смещения при чтении: 0
Способность читать области Lead-in и Lead-out : Нет

Выходной формат: Внутренние WAV-операции
44.100 Гц; 16 бит; стерео

Другие параметры:
Заполнение пропущенных сэмплов тишиной : Да
Удаление блоков с тишиной в начале и конце : Нет
Установленный внешний ASPI-интерфейс


Характеристики диапазона извлечения и сообщения об ошибках
Выбранный диапазон
Имя файла C:\Users\Сергей\Music\T-Ride - T-Ride.wav

Пиковый уровень 97.3 %
CRC 0540E9D4
Копирование... OK

Ошибок не произошло

Конец отчёта


"cue"
REM GENRE "Hard Rock"
REM DATE 2008
REM DISCID 8708090B
REM COMMENT "ExactAudioCopy v0.95b4"
PERFORMER "T-Ride"
TITLE "T-Ride"
FILE "T-Ride - T-Ride.wav" WAVE
TRACK 01 AUDIO
TITLE "1. Zombies From Hell"
PERFORMER "T-Ride"
FLAGS DCP
INDEX 01 00:00:00
TRACK 02 AUDIO
TITLE "2. Backdoor Romeo"
PERFORMER "T-Ride"
FLAGS DCP
INDEX 01 04:29:05
TRACK 03 AUDIO
TITLE "3. Ride"
PERFORMER "T-Ride"
FLAGS DCP
INDEX 01 07:04:25
TRACK 04 AUDIO
TITLE "4. You And Your Friend"
PERFORMER "T-Ride"
FLAGS DCP
INDEX 01 09:43:30
TRACK 05 AUDIO
TITLE "5. I Hunger"
PERFORMER "T-Ride"
FLAGS DCP
INDEX 01 11:56:40
TRACK 06 AUDIO
TITLE "6. Luxury Cruiser"
PERFORMER "T-Ride"
FLAGS DCP
INDEX 01 15:41:45
TRACK 07 AUDIO
TITLE "7. Hit Squad"
PERFORMER "T-Ride"
FLAGS DCP
INDEX 01 18:45:08
TRACK 08 AUDIO
TITLE "8. Bad Girls And Angels"
PERFORMER "T-Ride"
FLAGS DCP
INDEX 00 21:48:66
INDEX 01 21:48:68
TRACK 09 AUDIO
TITLE "9. Bone Down"
PERFORMER "T-Ride"
FLAGS DCP
INDEX 01 24:51:25
TRACK 10 AUDIO
TITLE "10. Fire It Up"
PERFORMER "T-Ride"
FLAGS DCP
INDEX 01 27:10:45
TRACK 11 AUDIO
TITLE "11. Heroes And Villains"
PERFORMER "T-Ride"
FLAGS DCP
INDEX 01 30:14:55

spectrum
Image


:losik:

:esel:

phpBB [youtube]


phpBB [youtube]


phpBB [youtube]


phpBB [youtube]


Top
 Profile  
 
 
PostPosted: 16 Feb 2013 
Хиппей (support team)
User avatar
Joined: 30 Jul 2007
Posts: 114899
Lоcаtion: Киев (Kyiv, UA)
Age: 46
Name: Andrey
:thanx:

Ммм... лэйбл очередной смешной. Название. Ну, послушаем качество :oops:

_________________


Top
 Profile E-mail  
 
 
PostPosted: 18 Feb 2013 
Хиппей (support team)
User avatar
Joined: 30 Jul 2007
Posts: 114899
Lоcаtion: Киев (Kyiv, UA)
Age: 46
Name: Andrey
Качество отменное :true:

Ну а по стилю это хард-рок с фанком и глэмом.

Довольно приятственый альбом :meloman: Правда звучок модноват малость :fingal:

6/10

mirror: MultiUp l Narod

_________________


Top
 Profile E-mail  
 
Display posts from previous:  Sort by  
Post new topic Reply to topic  [ 3 posts ] 

All times are UTC + 3 hours


Who is online

Users browsing this forum: No registered users and 3 guests


You cannot post new topics in this forum
You cannot reply to topics in this forum
You cannot edit your posts in this forum
You cannot delete your posts in this forum
You cannot post attachments in this forum

Search for:
Яндекс.Метрика
cron
Powered by phpBB © 2000, 2002, 2005, 2007 phpBB Group