\m/ 80's metal \m/

Информационно-аналитический форум "80 см пыли" (In Search We Trust) "У нас никто никуда не спешит"
Me For You - http://me-4u.com
It is currently 18 Oct 2019

All times are UTC + 3 hours

Spoiler
Chat - temporary registration for foreign users (please leave your application here)







Post new topic Reply to topic  [ 5 posts ] 
Author Message
 
PostPosted: 15 Feb 2013 
Генеральный thrasher
User avatar
Joined: 03 Oct 2008
Posts: 3738
Lоcаtion: Ханты-Мансийский АО
Age: 44
Name: Сергей
Image

Year:1988 (2007 Re-Issue)
Style:Thrash Metal
Country:Brazil
Audio:Flac+Cue+Log+Scans
Size:452Mb
Label:Marquee Records

Line-Up:
Jeziel - vocals,guitars
Cláudio Bezz - guitars
Jean - bass)
Sérgio Bezz - drums

Tracklist:
1. Trapped in Lies 05:45
2. Napalm Taste 04:38
3. Aria 04:44
4. Death by Booze 04:03
5. Nothing to Say 04:19
6. Behind the Flags 05:41
7. More Than You Can See 06:30
8. Damien (Open Rehearsal 2007)
9. Nothing to Say (Open Rehearsal 2007)
10. Rebelião dos Mortos (Open Rehearsal 2007)
11. Trapped in Lies (Open Rehearsal 2007)
12. Massacre (Live Rio 2007)

"Cue"
REM GENRE "Thrash Metal"
REM DATE 2007
REM DISCID A70E890C
REM COMMENT "ExactAudioCopy v0.99pb5"
PERFORMER "Taurus"
TITLE "Trapped In Lies"
FILE "Taurus - Trapped In Lies.flac" WAVE
TRACK 01 AUDIO
TITLE "Trapped In Lies"
PERFORMER "Taurus"
INDEX 01 00:00:00
TRACK 02 AUDIO
TITLE "Napalm Taste"
PERFORMER "Taurus"
INDEX 00 06:02:11
INDEX 01 06:04:11
TRACK 03 AUDIO
TITLE "Aria (Instrumental)"
PERFORMER "Taurus"
INDEX 00 10:54:57
INDEX 01 10:56:57
TRACK 04 AUDIO
TITLE "Death By Booze"
PERFORMER "Taurus"
INDEX 00 15:52:16
INDEX 01 15:54:16
TRACK 05 AUDIO
TITLE "Nothing To Say"
PERFORMER "Taurus"
INDEX 00 20:08:22
INDEX 01 20:10:22
TRACK 06 AUDIO
TITLE "Behind The Flags"
PERFORMER "Taurus"
INDEX 00 24:36:18
INDEX 01 24:38:18
TRACK 07 AUDIO
TITLE "More Than You Can See"
PERFORMER "Taurus"
INDEX 00 30:31:53
INDEX 01 30:33:53
TRACK 08 AUDIO
TITLE "Damien (Open Rehearsal 2007)"
PERFORMER "Taurus"
INDEX 01 37:19:38
TRACK 09 AUDIO
TITLE "Nothing To Say (Open Rehearsal 2007)"
PERFORMER "Taurus"
INDEX 01 40:32:39
TRACK 10 AUDIO
TITLE "Rebeliao Dos Mortos (Open Rehearsal 2007)"
PERFORMER "Taurus"
INDEX 00 44:55:22
INDEX 01 44:57:22
TRACK 11 AUDIO
TITLE "Trapped In Lies (Open Rehearsal 2007)"
PERFORMER "Taurus"
INDEX 00 50:41:19
INDEX 01 50:43:19
TRACK 12 AUDIO
TITLE "Massacre (Live Rio 2007)"
PERFORMER "Taurus"
INDEX 00 56:53:12
INDEX 01 56:55:12

"Log"
Exact Audio Copy V0.99 prebeta 5 from 4. May 2009

Отчёт EAC об извлечении, выполненном 17. января 2012, 12:14

Taurus / Trapped In Lies

Дисковод: TSSTcorpCDDVDW SH-S202N Adapter: 0 ID: 1

Режим чтения : Достоверность
Использование точного потока : Да
Отключение кэша аудио : Да
Использование указателей C2 : Нет

Коррекция смещения при чтении : 6
Способность читать области Lead-in и Lead-out : Нет
Заполнение пропущенных сэмплов тишиной : Да
Удаление блоков с тишиной в начале и конце : Нет
При вычислениях CRC использовались нулевые сэмплы : Да
Интерфейс : Встроенный Win32-интерфейс для Win NT/2000

Выходной формат : Пользовательский кодировщик
Выбранный битрейт : 768 kBit/s
Качество : Высокий
Добавление ID3-тэга : Нет
Утилита сжатия : C:\Program Files\Exact Audio Copy\FLAC\FLAC.EXE
Дополнительные параметры : -6 -V -T "ARTIST=%a" -T "TITLE=%t" -T "ALBUM=%g" -T "DATE=%y" -T "TRACKNUMBER=%n" -T "GENRE=%m" -T "COMMENT=%e" %s -o %d


TOC извлечённого CD

Трек | Старт | Длительность | Начальный сектор | Конечный сектор
---------------------------------------------------------------------
1 | 0:00.00 | 6:04.11 | 0 | 27310
2 | 6:04.11 | 4:52.46 | 27311 | 49256
3 | 10:56.57 | 4:57.34 | 49257 | 71565
4 | 15:54.16 | 4:16.06 | 71566 | 90771
5 | 20:10.22 | 4:27.71 | 90772 | 110867
6 | 24:38.18 | 5:55.35 | 110868 | 137527
7 | 30:33.53 | 6:45.60 | 137528 | 167962
8 | 37:19.38 | 3:13.01 | 167963 | 182438
9 | 40:32.39 | 4:24.58 | 182439 | 202296
10 | 44:57.22 | 5:45.72 | 202297 | 228243
11 | 50:43.19 | 6:11.68 | 228244 | 256136
12 | 56:55.12 | 5:05.70 | 256137 | 279081


Характеристики диапазона извлечения и сообщения об ошибках

Выбранный диапазон

Имя файла D:\Lossless Music\Taurus - Trapped In Lies.wav

Пиковый уровень 99.9 %
Качество диапазона 99.9 %
CRC копии CA3E0B88
Копирование... OK

Ошибок не произошло


AccurateRip: сводка

Трек 1 точное извлечение (доверие 2) [EAB67A5A]
Трек 2 точное извлечение (доверие 2) [E078EF66]
Трек 3 точное извлечение (доверие 2) [2F38E345]
Трек 4 точное извлечение (доверие 2) [27066720]
Трек 5 точное извлечение (доверие 2) [CFC84B17]
Трек 6 точное извлечение (доверие 2) [45BDF743]
Трек 7 точное извлечение (доверие 2) [00A38E48]
Трек 8 точное извлечение (доверие 2) [046208AE]
Трек 9 точное извлечение (доверие 2) [6B3BB19A]
Трек 10 точное извлечение (доверие 2) [137D5D95]
Трек 11 точное извлечение (доверие 2) [387D8315]
Трек 12 точное извлечение (доверие 2) [04395799]

Все треки извлечены точно

Конец отчёта

Spectrum
Image


Trapped In Lies


Top
 Profile  
 
 
PostPosted: 16 Feb 2013 
Хиппей (support team)
User avatar
Joined: 30 Jul 2007
Posts: 114899
Lоcаtion: Киев (Kyiv, UA)
Age: 46
Name: Andrey
:thanx:

_________________


Top
 Profile E-mail  
 
 
PostPosted: 16 Feb 2013 
Old Time Rock`n`Roll
User avatar
Joined: 23 Jun 2008
Posts: 3490
Warnings: 1
Lоcаtion: г.Ульяновск
Age: 41
Name: Константин
:thanx:


Top
 Profile  
 
 
PostPosted: 17 Feb 2013 
Работнечег
User avatar
Joined: 28 Aug 2007
Posts: 6033
Lоcаtion: г. Москва
Age: 30
Name: Дима
:true: :true: :true:


Top
 Profile E-mail  
 
 
PostPosted: 18 Feb 2013 
Хиппей (support team)
User avatar
Joined: 30 Jul 2007
Posts: 114899
Lоcаtion: Киев (Kyiv, UA)
Age: 46
Name: Andrey
Мда... К сожалению, прошло два года, группа явно решила, что ей пора выходит на американский рынок. Лирика пошла на английском и...
Всё пропало, шеф (с) :cry:
Музыка стало чуть тяжелее, но это не плюс, а очень даже ушло в минус. Вялотекущий и якобы техничный уже трэш сменил ранее бойкий и задорный спидняк и вышло... А ничего хорошего не вышло :pardon:
Новый вокалист еле мямлит на неродном для него языке, скорости намного поутихли, былой напор уступил какому-то примитивизму риффов и почти полному отсутствию мелодий. Я уже не говорю о запоминающихся мелодиях и былом драйве. Их попросту нет :esel:
В итоге имеем полностью проходной альбом, добитый бонусными демками. Которые на этот раз радуют намного больше самого альбома :fingal:

4/10

mirror: MultiUp l Narod

_________________


Top
 Profile E-mail  
 
Display posts from previous:  Sort by  
Post new topic Reply to topic  [ 5 posts ] 

All times are UTC + 3 hours


Who is online

Users browsing this forum: No registered users and 1 guest


You cannot post new topics in this forum
You cannot reply to topics in this forum
You cannot edit your posts in this forum
You cannot delete your posts in this forum
You cannot post attachments in this forum

Search for:
Яндекс.Метрика
Powered by phpBB © 2000, 2002, 2005, 2007 phpBB Group