\m/ 80's metal \m/

Информационно-аналитический форум "80 см пыли" (In Search We Trust) "У нас никто никуда не спешит"
Me For You - http://me-4u.com
It is currently 20 Jul 2019

All times are UTC + 3 hours

Spoiler
Chat - temporary registration for foreign users (please leave your application here)







Post new topic Reply to topic  [ 9 posts ] 
Author Message
 
PostPosted: 15 Feb 2013 
Генеральный thrasher
User avatar
Joined: 03 Oct 2008
Posts: 3714
Lоcаtion: Ханты-Мансийский АО
Age: 44
Name: Сергей
Image

Year:1986 (2006 Re-Issue)
Style:Thrash Metal
Country:Brazil
Audio:Flac+Cue+Log+Scans
Size:492Mb
Label:Marquee Records

Line-Up:
Claudio Bez - guitars
Jean - bass
Otavio Augusto - vocals
Sergio Bezz - drums

Tracklist:
1. Signo de Taurus
2. Mundo em Alerta
3. Massacre
4. Imperio Humano
5. Batalha Final
6. Damien
7. Rebeliгo dos Mortos
8. Falsos Comandos
9. Gladiadores - Bonus Live at Circo Marinho Santos (SP), 1987
10. Signo de Taurus - Bonus - (From Demo II)
11. Mundo em Alerta - Bonus - (From Demo II)
12. Falsos Comandos - Bonus - (From Demo II)
13. Massacre - Bonus - (From Demo II)
14. Batalha Final - Bonus - (From Demo II)
15. Gladiadores - Bonus - Live at Caverna II - Rio de Janeiro (RJ), 1985
16. Batalha Final - Bonus - (From Demo I)

"Cue"
REM GENRE "Thrash Metal"
REM DATE 2006
REM DISCID E9105710
REM COMMENT "ExactAudioCopy v0.99pb5"
PERFORMER "Taurus"
TITLE "Signo De Taurus"
FILE "Taurus - Signo De Taurus.flac" WAVE
TRACK 01 AUDIO
TITLE "Signo de Taurus Intro"
PERFORMER "Taurus"
INDEX 01 00:00:00
TRACK 02 AUDIO
TITLE "Mundo em Alerta"
PERFORMER "Taurus"
INDEX 01 02:04:65
TRACK 03 AUDIO
TITLE "Massacre"
PERFORMER "Taurus"
INDEX 00 05:45:46
INDEX 01 05:47:46
TRACK 04 AUDIO
TITLE "Imperio Humano"
PERFORMER "Taurus"
INDEX 00 10:23:56
INDEX 01 10:25:56
TRACK 05 AUDIO
TITLE "Batalha Final"
PERFORMER "Taurus"
INDEX 00 16:38:19
INDEX 01 16:40:19
TRACK 06 AUDIO
TITLE "Damien"
PERFORMER "Taurus"
INDEX 00 21:03:60
INDEX 01 21:05:60
TRACK 07 AUDIO
TITLE "Rebeliao dos Mortos"
PERFORMER "Taurus"
INDEX 00 24:45:53
INDEX 01 24:47:53
TRACK 08 AUDIO
TITLE "Falsos Comandos"
PERFORMER "Taurus"
INDEX 00 30:49:66
INDEX 01 30:51:66
TRACK 09 AUDIO
TITLE "Gladiatores (Live at Circo Marinho Santos) 1987"
PERFORMER "Taurus"
INDEX 00 37:21:46
INDEX 01 37:23:46
TRACK 10 AUDIO
TITLE "Signo de Taurus (Demo 2)"
PERFORMER "Taurus"
INDEX 00 39:46:64
INDEX 01 39:48:64
TRACK 11 AUDIO
TITLE "Mundo em Alerta (Demo 2)"
PERFORMER "Taurus"
INDEX 01 41:47:05
TRACK 12 AUDIO
TITLE "Falsos Comandos (Demo 2)"
PERFORMER "Taurus"
INDEX 00 45:34:39
INDEX 01 45:36:39
TRACK 13 AUDIO
TITLE "Massacre (Demo 2)"
PERFORMER "Taurus"
INDEX 00 52:39:10
INDEX 01 52:41:10
TRACK 14 AUDIO
TITLE "Batalha Final (Demo 2)"
PERFORMER "Taurus"
INDEX 00 57:29:01
INDEX 01 57:31:01
TRACK 15 AUDIO
TITLE "Gladiatores (Live at Caverna II Rio de Janeiro) 1985"
PERFORMER "Taurus"
INDEX 00 62:09:43
INDEX 01 62:11:43
TRACK 16 AUDIO
TITLE "Batalha Final (Demo 1)"
PERFORMER "Taurus"
INDEX 00 64:43:57
INDEX 01 64:45:57

"Log"
Exact Audio Copy V0.99 prebeta 5 from 4. May 2009

Отчёт EAC об извлечении, выполненном 29. августа 2011, 17:28

Taurus / Signo De Taurus

Дисковод: TSSTcorpCDDVDW SH-S202N Adapter: 0 ID: 1

Режим чтения : Достоверность
Использование точного потока : Да
Отключение кэша аудио : Да
Использование указателей C2 : Нет

Коррекция смещения при чтении : 6
Способность читать области Lead-in и Lead-out : Нет
Заполнение пропущенных сэмплов тишиной : Да
Удаление блоков с тишиной в начале и конце : Нет
При вычислениях CRC использовались нулевые сэмплы : Да
Интерфейс : Встроенный Win32-интерфейс для Win NT/2000

Выходной формат : Пользовательский кодировщик
Выбранный битрейт : 768 kBit/s
Качество : Высокий
Добавление ID3-тэга : Нет
Утилита сжатия : C:\Program Files\Exact Audio Copy\FLAC\FLAC.EXE
Дополнительные параметры : -6 -V -T "ARTIST=%a" -T "TITLE=%t" -T "ALBUM=%g" -T "DATE=%y" -T "TRACKNUMBER=%n" -T "GENRE=%m" -T "COMMENT=%e" %s -o %d


TOC извлечённого CD

Трек | Старт | Длительность | Начальный сектор | Конечный сектор
---------------------------------------------------------------------
1 | 0:00.00 | 2:04.65 | 0 | 9364
2 | 2:04.65 | 3:42.56 | 9365 | 26070
3 | 5:47.46 | 4:38.10 | 26071 | 46930
4 | 10:25.56 | 6:14.38 | 46931 | 75018
5 | 16:40.19 | 4:25.41 | 75019 | 94934
6 | 21:05.60 | 3:41.68 | 94935 | 111577
7 | 24:47.53 | 6:04.13 | 111578 | 138890
8 | 30:51.66 | 6:31.55 | 138891 | 168270
9 | 37:23.46 | 2:25.18 | 168271 | 179163
10 | 39:48.64 | 1:58.16 | 179164 | 188029
11 | 41:47.05 | 3:49.34 | 188030 | 205238
12 | 45:36.39 | 7:04.46 | 205239 | 237084
13 | 52:41.10 | 4:49.66 | 237085 | 258825
14 | 57:31.01 | 4:40.42 | 258826 | 279867
15 | 62:11.43 | 2:34.14 | 279868 | 291431
16 | 64:45.57 | 4:57.61 | 291432 | 313767


Характеристики диапазона извлечения и сообщения об ошибках

Выбранный диапазон

Имя файла E:\Лоси\T\Taurus - Signo De Taurus.wav

Пиковый уровень 100.0 %
Качество диапазона 100.0 %
CRC копии 4048DB2C
Копирование... OK

Ошибок не произошло


AccurateRip: сводка

Трек 1 точное извлечение (доверие 1) [C36206B8]
Трек 2 точное извлечение (доверие 1) [A4F80B4C]
Трек 3 точное извлечение (доверие 1) [FAB7F795]
Трек 4 точное извлечение (доверие 1) [3F59E04B]
Трек 5 точное извлечение (доверие 1) [74B55394]
Трек 6 точное извлечение (доверие 1) [F2DE971C]
Трек 7 точное извлечение (доверие 1) [5953E40F]
Трек 8 точное извлечение (доверие 1) [7A986D80]
Трек 9 точное извлечение (доверие 1) [84C41A3D]
Трек 10 точное извлечение (доверие 1) [A3F3B7A8]
Трек 11 точное извлечение (доверие 1) [8965F969]
Трек 12 точное извлечение (доверие 1) [8B9AF597]
Трек 13 точное извлечение (доверие 1) [D3199185]
Трек 14 точное извлечение (доверие 1) [2AAE81A8]
Трек 15 точное извлечение (доверие 1) [15B10950]
Трек 16 точное извлечение (доверие 1) [529874CE]

Все треки извлечены точно

Конец отчёта

Spectrum
[url=http://postimage.org/image/nfq8zqdi7/]Image[/url


Signo De Taurus

Решил выложить свои рипы для тех,кто не дружит с Рутрэкером.Тем более все скачав убегают...


Top
 Profile  
 
 
PostPosted: 15 Feb 2013 
ТрэшЭрос
User avatar
Joined: 18 Jul 2011
Posts: 2303
Lоcаtion: Гулькевичи
Age: 44
Name: Александр
thorbeorn, :thanx:
Оста :losik: найти Pornography (1989) и :true: :true: :true:

_________________
Thrash no trash!!!


Top
 Profile E-mail  
 
 
PostPosted: 15 Feb 2013 
Генеральный thrasher
User avatar
Joined: 03 Oct 2008
Posts: 3714
Lоcаtion: Ханты-Мансийский АО
Age: 44
Name: Сергей
thorbeorn, :thanx:
Оста :losik: найти Pornography (1989) и :true: :true: :true:


Сань,заказал уже...Осталось ждать.


Top
 Profile  
 
 
PostPosted: 16 Feb 2013 
Хиппей (support team)
User avatar
Joined: 30 Jul 2007
Posts: 113561
Lоcаtion: Киев (Kyiv, UA)
Age: 46
Name: Andrey
:thanx:

_________________


Top
 Profile E-mail  
 
 
PostPosted: 16 Feb 2013 
ТрэшЭрос
User avatar
Joined: 18 Jul 2011
Posts: 2303
Lоcаtion: Гулькевичи
Age: 44
Name: Александр
thorbeorn wrote:
Осталось ждать


:dance: :thanx:

_________________
Thrash no trash!!!


Top
 Profile E-mail  
 
 
PostPosted: 17 Feb 2013 
Работнечег
User avatar
Joined: 28 Aug 2007
Posts: 5919
Lоcаtion: г. Москва
Age: 30
Name: Дима
Спасибо, Серег! Этого нет, а Pornogrraphy и Fissura есть возможность купить за дешево, так что тож возьму, группа нравится!


Top
 Profile E-mail  
 
 
PostPosted: 18 Feb 2013 
Хиппей (support team)
User avatar
Joined: 30 Jul 2007
Posts: 113561
Lоcаtion: Киев (Kyiv, UA)
Age: 46
Name: Andrey
mirror: MultiUp l Narod

Альбом полный ну весьма понравился :true: :true: :true:
Спиднячный такой и хардкористый хэви, почти что трэш. Дальше явно точно будет трэшак настоящий, а пока же злобный такой, техничный и скоростной хэви с испноязычной лирикой.
Вот я и говорил уже сколько раз - ну не катит испаноязычная лирика ни к харду, ни к хэви или паверу, а вот к более жесткой музыке очень даже подходит.

Еще раз спасибо за... знакомство с группой :thanx: :thanx: :thanx:

Демки можно не слушать, чтоб не портить себе впечатление от группы :pardon:

6++/10

_________________


Top
 Profile E-mail  
 
 
PostPosted: 18 Feb 2013 
Хиппей (support team)
User avatar
Joined: 30 Jul 2007
Posts: 113561
Lоcаtion: Киев (Kyiv, UA)
Age: 46
Name: Andrey
Scatterbrain wrote:
Демки можно не слушать, чтоб не портить себе впечатление от группы

А вот и фиг там. И они мне понравились :true:

_________________


Top
 Profile E-mail  
 
 
PostPosted: 21 Feb 2013 
Доктор энтомологии
User avatar
Joined: 22 Jan 2009
Posts: 9805
Lоcаtion: Даугавпилс
Age: 44
Name: Алексей
:thanx:


Top
 Profile  
 
Display posts from previous:  Sort by  
Post new topic Reply to topic  [ 9 posts ] 

All times are UTC + 3 hours


Who is online

Users browsing this forum: No registered users and 2 guests


You cannot post new topics in this forum
You cannot reply to topics in this forum
You cannot edit your posts in this forum
You cannot delete your posts in this forum
You cannot post attachments in this forum

Search for:
Яндекс.Метрика
Powered by phpBB © 2000, 2002, 2005, 2007 phpBB Group