\m/ 80's metal \m/

Информационно-аналитический форум "80 см пыли" (In Search We Trust) "У нас никто никуда не спешит"
Me For You - http://me-4u.com
It is currently 18 Jul 2019

All times are UTC + 3 hours

Spoiler
Chat - temporary registration for foreign users (please leave your application here)







Post new topic Reply to topic  [ 4 posts ] 
Author Message
 
PostPosted: 06 Jan 2013 
А может смените мне статус?..
User avatar
Joined: 22 Nov 2008
Posts: 971
Lоcаtion: Schelcovo,Russia
Age: 47
Name: Сергей
Image
Image
Escape - Escape (1990)
Setlist:
1. On Wheels
2. Stay Out
3. Don't Look Back
4. Children Of The City
5. Spotlight
6. Rebel In Violence
7. Rat In A Cage
8. Dreamer
9. Excited

Erik Dresler - Bass
Mike Kulpmann - Drums
Arno Kuttig - Guitars
Boris Voss - Guitars, Keyboards
Joachim Weber - Vocals

Lossless

Mp3

"log"
Отчёт EAC об извлечении, выполненном 5. января 2013, 10:48 для диска:
Escape / Escape

Дисковод: HL-DT-STDVDRAM GT32N Adapter: 0 ID: 1
Режим чтения: Скоростной
Коррекция смещения при чтении: 0
Способность читать области Lead-in и Lead-out : Нет

Выходной формат: Внутренние WAV-операции
44.100 Гц; 16 бит; стерео

Другие параметры:
Заполнение пропущенных сэмплов тишиной : Да
Удаление блоков с тишиной в начале и конце : Нет
Установленный внешний ASPI-интерфейс


Характеристики диапазона извлечения и сообщения об ошибках
Выбранный диапазон
Имя файла C:\Users\Сергей\Music\Escape - Escape (1990)\Escape - Escape.wav

Пиковый уровень 100.0 %
CRC 040E6DCD
Копирование... OK

Ошибок не произошло

Конец отчёта


"cue"
REM GENRE Metal
REM DATE 1990
REM DISCID 6609EA09
REM COMMENT "ExactAudioCopy v0.95b4"
PERFORMER " Escape"
TITLE " Escape"
FILE "Escape - Escape.wav" WAVE
TRACK 01 AUDIO
TITLE "1. On Wheels"
PERFORMER " Escape"
FLAGS DCP
INDEX 01 00:00:00
TRACK 02 AUDIO
TITLE "2. Stay Out"
PERFORMER " Escape"
FLAGS DCP
INDEX 01 05:12:55
TRACK 03 AUDIO
TITLE "3. Don't Look Back"
PERFORMER " Escape"
FLAGS DCP
INDEX 01 10:26:20
TRACK 04 AUDIO
TITLE "4. Children Of The City"
PERFORMER " Escape"
FLAGS DCP
INDEX 01 14:53:35
TRACK 05 AUDIO
TITLE "5. Spotlight"
PERFORMER " Escape"
FLAGS DCP
INDEX 01 21:40:25
TRACK 06 AUDIO
TITLE "6. Rebel In Violence"
PERFORMER " Escape"
FLAGS DCP
INDEX 01 26:21:10
TRACK 07 AUDIO
TITLE "7. Rat In A Cage"
PERFORMER " Escape"
FLAGS DCP
INDEX 01 29:59:00
TRACK 08 AUDIO
TITLE "8. Dreamer"
PERFORMER " Escape"
FLAGS DCP
INDEX 01 34:04:50
TRACK 09 AUDIO
TITLE "9. Excited"
PERFORMER " Escape"
FLAGS DCP
INDEX 01 38:58:10


[youtube]Zyt7H7wy5_A&feature=player_embedded[/youtube]


Top
 Profile  
 
 
PostPosted: 07 Jan 2013 
Хиппей (support team)
User avatar
Joined: 30 Jul 2007
Posts: 113537
Lоcаtion: Киев (Kyiv, UA)
Age: 46
Name: Andrey
:thanx:

mirror: F-Bit l Narod l eDisk

Кажись когда-то искали этот альбом здесь...

_________________


Top
 Profile E-mail  
 
 
PostPosted: 08 Jan 2013 
Работнечег
User avatar
Joined: 28 Aug 2007
Posts: 5919
Lоcаtion: г. Москва
Age: 30
Name: Дима
Искали по-моему второй альбом, там рип с косяками весь был. За альбом спасибо, заберу пожалуй :thanx:


Top
 Profile E-mail  
 
 
PostPosted: 16 Aug 2013 
Хиппей (support team)
User avatar
Joined: 30 Jul 2007
Posts: 113537
Lоcаtion: Киев (Kyiv, UA)
Age: 46
Name: Andrey
Понравился альбом. Приятный и симпатичный Hard & Heavy с иногда клавишными и как бы прогом :dance:

6/10

_________________


Top
 Profile E-mail  
 
Display posts from previous:  Sort by  
Post new topic Reply to topic  [ 4 posts ] 

All times are UTC + 3 hours


Who is online

Users browsing this forum: No registered users and 1 guest


You cannot post new topics in this forum
You cannot reply to topics in this forum
You cannot edit your posts in this forum
You cannot delete your posts in this forum
You cannot post attachments in this forum

Search for:
Яндекс.Метрика
Powered by phpBB © 2000, 2002, 2005, 2007 phpBB Group