\m/ 80's metal \m/

Информационно-аналитический форум "80 см пыли" (In Search We Trust) "У нас никто никуда не спешит"
Me For You - http://me-4u.com
It is currently 18 Oct 2019

All times are UTC + 3 hours

Spoiler
Chat - temporary registration for foreign users (please leave your application here)







Post new topic Reply to topic  [ 11 posts ] 
Author Message
 
PostPosted: 02 Jan 2013 
Работнечег
User avatar
Joined: 28 Aug 2007
Posts: 6033
Lоcаtion: г. Москва
Age: 30
Name: Дима
Image

Band: Thor
Album: Unchained EP
Year: 2009
Label: Ektro Records
Genre: Heavy Metal
Coutry: Canada
Format: Flac + Log + Cue + Covers
Size: 260 Mb

Line-Up:
Jon Mikl Thor - Lead Vocals
Keith Zazzi - Bass, Backing Vocals
Mike Favata - Drums
Steve Price - Lead Guitar
Queen Pantera - Backing Vocals


Tracklist:
1. Lightning Strikes Again 02:37
2. Anger 03:42
3. Rock the City 03:54
4. Laser Eyes 03:25
5. When Gods Collide 04:32
6. Death March 02:43
7. Warhammer (Bonus) 03:05
8. Rebirth (Bonus) 03:33
9. Ride From Hell (Bonus) 03:10
10. Ragnarock (Bonus) 02:27
11. Muscle Rock (The Vulcans Arrive) (Bonus) 02:29

LOG
Exact Audio Copy V0.99 prebeta 5 from 4. May 2009

EAC extraction logfile from 23. December 2012, 20:52

Thor / Unchained

Used drive : PIONEER DVD-RW DVR-116D Adapter: 0 ID: 0

Read mode : Secure
Utilize accurate stream : Yes
Defeat audio cache : Yes
Make use of C2 pointers : No

Read offset correction : 96
Overread into Lead-In and Lead-Out : No
Fill up missing offset samples with silence : Yes
Delete leading and trailing silent blocks : No
Null samples used in CRC calculations : Yes
Used interface : Native Win32 interface for Win NT & 2000

Used output format : User Defined Encoder
Selected bitrate : 32 kBit/s
Quality : High
Add ID3 tag : No
Command line compressor : C:\Program Files\Exact Audio Copy\Flac\flac.exe
Additional command line options : -6 -V %s


TOC of the extracted CD

Track | Start | Length | Start sector | End sector
---------------------------------------------------------
1 | 0:00.00 | 2:35.06 | 0 | 11630
2 | 2:35.06 | 3:39.54 | 11631 | 28109
3 | 6:14.60 | 3:51.69 | 28110 | 45503
4 | 10:06.54 | 3:11.06 | 45504 | 59834
5 | 13:17.60 | 4:27.73 | 59835 | 79932
6 | 17:45.58 | 2:45.14 | 79933 | 92321
7 | 20:30.72 | 3:05.33 | 92322 | 106229
8 | 23:36.30 | 3:33.26 | 106230 | 122230
9 | 27:09.56 | 3:10.45 | 122231 | 136525
10 | 30:20.26 | 2:27.64 | 136526 | 147614
11 | 32:48.15 | 2:29.62 | 147615 | 158851


Range status and errors

Selected range

Filename D:\Музыка\Lossless\Thor - Unchained EP (1983)(Re-released In 2009)\Thor - Unchained.wav

Peak level 96.6 %
Range quality 100.0 %
Copy CRC 34CDD025
Copy OK

No errors occurred


AccurateRip summary

Track 1 accurately ripped (confidence 1) [B6FDEE02]
Track 2 accurately ripped (confidence 1) [2C6AF9E7]
Track 3 accurately ripped (confidence 1) [BE6060B3]
Track 4 accurately ripped (confidence 1) [8B69A2B3]
Track 5 accurately ripped (confidence 1) [CCD674A7]
Track 6 accurately ripped (confidence 1) [0C441FE1]
Track 7 accurately ripped (confidence 1) [0E0ABC8D]
Track 8 accurately ripped (confidence 1) [8DB51F66]
Track 9 accurately ripped (confidence 1) [399522B9]
Track 10 accurately ripped (confidence 1) [F05DD07A]
Track 11 accurately ripped (confidence 1) [1FB5E247]

All tracks accurately ripped

End of status report

CUE
REM GENRE "Heavy Metal"
REM DATE 2009
REM DISCID 9308460B
REM COMMENT "ExactAudioCopy v0.99pb5"
PERFORMER "Thor"
TITLE "Unchained"
FILE "Thor - Unchained.flac" WAVE
TRACK 01 AUDIO
TITLE "Lightning Strikes"
PERFORMER "Thor"
INDEX 01 00:00:00
TRACK 02 AUDIO
TITLE "Anger"
PERFORMER "Thor"
INDEX 01 02:35:06
TRACK 03 AUDIO
TITLE "Rock The City"
PERFORMER "Thor"
INDEX 01 06:14:60
TRACK 04 AUDIO
TITLE "Lazer Eyes"
PERFORMER "Thor"
INDEX 01 10:06:54
TRACK 05 AUDIO
TITLE "When Gods Collide"
PERFORMER "Thor"
INDEX 01 13:17:60
TRACK 06 AUDIO
TITLE "Death March"
PERFORMER "Thor"
INDEX 01 17:45:58
TRACK 07 AUDIO
TITLE "Warhammer"
PERFORMER "Thor"
INDEX 01 20:30:72
TRACK 08 AUDIO
TITLE "Rebirth"
PERFORMER "Thor"
INDEX 00 23:34:30
INDEX 01 23:36:30
TRACK 09 AUDIO
TITLE "Ride From Hell"
PERFORMER "Thor"
INDEX 01 27:09:56
TRACK 10 AUDIO
TITLE "Ragnarock"
PERFORMER "Thor"
INDEX 01 30:20:26
TRACK 11 AUDIO
TITLE "Muscle Rock (The Vulcans Arrive) (Bonus)"
PERFORMER "Thor"
INDEX 01 32:48:15


Ifolder.ru

Не понравилось как ремастированы бонусы, а так ипишка на твердую пятерку!


Top
 Profile E-mail  
 
 
PostPosted: 02 Jan 2013 
Пионэръ
User avatar
Joined: 16 Oct 2012
Posts: 13
Lоcаtion: Берлога
Age: 44
Name: Бурый Медведь
Мои благодарности Дмитрий! :thanx: :thanx: :thanx:


Top
 Profile  
 
 
PostPosted: 03 Jan 2013 
Труъ
User avatar
Joined: 23 Nov 2012
Posts: 149
Lоcаtion: Новосибирск
Age: 39
Name: Игорь
Image

Спасибо конечно, но к сожалению больше половины треков с таким спектром, увы.

_________________
ты не мужчина если у тебя нет штанги (и электрогитары)


Top
 Profile E-mail  
 
 
PostPosted: 03 Jan 2013 
Хиппей (support team)
User avatar
Joined: 30 Jul 2007
Posts: 114899
Lоcаtion: Киев (Kyiv, UA)
Age: 46
Name: Andrey
Бонусы с кассеток, а миничек забираю, спасибо, Дим :thanx:

mirror: MultiUp l Narod

_________________


Top
 Profile E-mail  
 
 
PostPosted: 03 Jan 2013 
Труъ
User avatar
Joined: 23 Nov 2012
Posts: 149
Lоcаtion: Новосибирск
Age: 39
Name: Игорь
Обрезанные спектры с 1 по 6 трек. А потом с кассеток - необрезанные :pardon:

_________________
ты не мужчина если у тебя нет штанги (и электрогитары)


Top
 Profile E-mail  
 
 
PostPosted: 07 Jan 2013 
Работнечег
User avatar
Joined: 28 Aug 2007
Posts: 6033
Lоcаtion: г. Москва
Age: 30
Name: Дима
Обрезанные спектры с 1 по 6 трек. А потом с кассеток - необрезанные :pardon:

Ну если не обращать внимание на спектры, то по звучанию первые 6 трэков звучат лучше последующих. Спектры, имхо, не показатель качества.


Top
 Profile E-mail  
 
 
PostPosted: 08 Jan 2013 
Труъ
User avatar
Joined: 23 Nov 2012
Posts: 149
Lоcаtion: Новосибирск
Age: 39
Name: Игорь
Спектры, имхо, не показатель качества.


Разумеется. Но это показатель того, качественный ли продукт или халтура. В данном случае второе.

_________________
ты не мужчина если у тебя нет штанги (и электрогитары)


Top
 Profile E-mail  
 
 
PostPosted: 08 Jan 2013 
Работнечег
User avatar
Joined: 28 Aug 2007
Posts: 6033
Lоcаtion: г. Москва
Age: 30
Name: Дима
Спектры, имхо, не показатель качества.


Разумеется. Но это показатель того, качественный ли продукт или халтура. В данном случае второе.

Здесь пожалуй соглашусь. Для меня это было довольно неожиданно, так как издание это уже не так просто найти и стоит оно немало. Да и столько раз уже ремастировали эту ипишку, что могли бы и нормально сделать. Есть ещё альбом этой же конторы, будет интересно посмотреть как там со звуком и со спектрами.


Top
 Profile E-mail  
 
 
PostPosted: 08 Jan 2013 
Труъ
User avatar
Joined: 23 Nov 2012
Posts: 149
Lоcаtion: Новосибирск
Age: 39
Name: Игорь
А я бы не стал рисковать, один раз нарвавшись. Вот например хочу купить DC Lacroix от retrospect rec., но наверное не буду, потому как контора сомнительная, тоже лепят с мп3-шек. Дело даже не в деньгах, какие-нибудь 15-20 долларов это ерунда, просто неприятно получать фуфло, обидно что ли... :vic:

_________________
ты не мужчина если у тебя нет штанги (и электрогитары)


Top
 Profile E-mail  
 
 
PostPosted: 08 Jan 2013 
Работнечег
User avatar
Joined: 28 Aug 2007
Posts: 6033
Lоcаtion: г. Москва
Age: 30
Name: Дима
А я бы не стал рисковать, один раз нарвавшись. Вот например хочу купить DC Lacroix от retrospect rec., но наверное не буду, потому как контора сомнительная, тоже лепят с мп3-шек. Дело даже не в деньгах, какие-нибудь 15-20 долларов это ерунда, просто неприятно получать фуфло, обидно что ли... :vic:

Да в таких конторах иногда тож раз на раз не приходится) я как правило от подобных контор до 10-12 долларов стараюсь диски брать, не дороже) А с Thor, просто ссразу 2 покупал, так как дешевле было на порядок чем в остальных местах)


Top
 Profile E-mail  
 
 
PostPosted: 11 Jan 2013 
спирт 100%
User avatar
Joined: 22 Sep 2008
Posts: 4474
Age: 48
Name: Саня
Дим,все ровно Спасибо! :thanx:


Top
 Profile  
 
Display posts from previous:  Sort by  
Post new topic Reply to topic  [ 11 posts ] 

All times are UTC + 3 hours


Who is online

Users browsing this forum: No registered users and 2 guests


You cannot post new topics in this forum
You cannot reply to topics in this forum
You cannot edit your posts in this forum
You cannot delete your posts in this forum
You cannot post attachments in this forum

Search for:
Яндекс.Метрика
Powered by phpBB © 2000, 2002, 2005, 2007 phpBB Group