\m/ 80's metal \m/

Информационно-аналитический форум "80 см пыли" (In Search We Trust) "У нас никто никуда не спешит"
Me For You - http://me-4u.com
It is currently 20 Sep 2019

All times are UTC + 3 hours

Spoiler
Chat - temporary registration for foreign users (please leave your application here)







Post new topic Reply to topic  [ 3 posts ] 
Author Message
 
PostPosted: 23 Nov 2012 
А может смените мне статус?..
User avatar
Joined: 22 Nov 2008
Posts: 972
Lоcаtion: Schelcovo,Russia
Age: 47
Name: Сергей
Image
Image
Toss 'N' Turn - Freestyle (1994)
Setlist:
01. How Do You Feel
02. Don't Lie To Me
03. Back To The Wall
04. Heart Growing Old
05. Confession
06. Hungry
07. In My Blood
08. Torture, Torture
09. All Nite Sensation
10. Life (The Ups & Downs)
11. Stop Beggin' Me
12. One Night & A Heartache
13. Eternal Flame
14. Don't Lie To Me (Reprise)

Lossless
Mp3

"log"
Отчёт EAC об извлечении, выполненном 22. ноября 2012, 21:09 для диска:
Toss 'N' Turn / Freestyle

Дисковод: HL-DT-STDVDRAM GT32N Adapter: 0 ID: 1
Режим чтения: Скоростной
Коррекция смещения при чтении: 0
Способность читать области Lead-in и Lead-out : Нет

Выходной формат: Внутренние WAV-операции
44.100 Гц; 16 бит; стерео

Другие параметры:
Заполнение пропущенных сэмплов тишиной : Да
Удаление блоков с тишиной в начале и конце : Нет
Установленный внешний ASPI-интерфейс


Характеристики диапазона извлечения и сообщения об ошибках
Выбранный диапазон
Имя файла C:\Users\Сергей\Music\Riot\Toss 'N' Turn - Freestyle.wav

Пиковый уровень 98.8 %
CRC 169F3734
Копирование... OK

Ошибок не произошло

Конец отчёта


"cue"
REM GENRE "Hard Rock"
REM DATE 1994
REM DISCID C60E680E
REM COMMENT "ExactAudioCopy v0.95b4"
PERFORMER "Toss 'N' Turn"
TITLE "Freestyle"
FILE "Toss 'N' Turn - Freestyle.wav" WAVE
TRACK 01 AUDIO
TITLE "01. How Do You Feel"
PERFORMER "Toss 'N' Turn"
INDEX 01 00:00:00
TRACK 02 AUDIO
TITLE "02. Don't Lie To Me"
PERFORMER "Toss 'N' Turn"
INDEX 01 04:44:42
TRACK 03 AUDIO
TITLE "03. Back To The Wall"
PERFORMER "Toss 'N' Turn"
INDEX 00 08:36:51
INDEX 01 08:38:23
TRACK 04 AUDIO
TITLE "04. Heart Growing Old"
PERFORMER "Toss 'N' Turn"
INDEX 00 13:05:65
INDEX 01 13:08:48
TRACK 05 AUDIO
TITLE "05. Confession"
PERFORMER "Toss 'N' Turn"
INDEX 00 19:09:56
INDEX 01 19:11:25
TRACK 06 AUDIO
TITLE "06. Hungry"
PERFORMER "Toss 'N' Turn"
INDEX 00 22:44:50
INDEX 01 22:46:20
TRACK 07 AUDIO
TITLE "07. In My Blood"
PERFORMER "Toss 'N' Turn"
INDEX 00 28:22:13
INDEX 01 28:25:63
TRACK 08 AUDIO
TITLE "08. Torture, Torture"
PERFORMER "Toss 'N' Turn"
INDEX 00 32:29:11
INDEX 01 32:30:53
TRACK 09 AUDIO
TITLE "09. All Nite Sensation"
PERFORMER "Toss 'N' Turn"
INDEX 00 37:28:47
INDEX 01 37:30:23
TRACK 10 AUDIO
TITLE "10. Life (The Ups & Downs)"
PERFORMER "Toss 'N' Turn"
INDEX 00 42:33:52
INDEX 01 42:35:38
TRACK 11 AUDIO
TITLE "11. Stop Beggin' Me"
PERFORMER "Toss 'N' Turn"
INDEX 00 46:36:27
INDEX 01 46:37:72
TRACK 12 AUDIO
TITLE "12. One Night & A Heartache"
PERFORMER "Toss 'N' Turn"
INDEX 01 51:12:53
TRACK 13 AUDIO
TITLE "13. Eternal Flame"
PERFORMER "Toss 'N' Turn"
INDEX 00 55:14:40
INDEX 01 55:16:10
TRACK 14 AUDIO
TITLE "14. Don't Lie To Me (Reprise)"
PERFORMER "Toss 'N' Turn"
INDEX 00 59:10:25
INDEX 01 60:09:70


Сканы есть

phpBB [youtube]


Last edited by snider1971 on 24 Nov 2012, edited 1 time in total.

Top
 Profile  
 
 
PostPosted: 23 Nov 2012 
Хиппей (support team)
User avatar
Joined: 30 Jul 2007
Posts: 114391
Lоcаtion: Киев (Kyiv, UA)
Age: 46
Name: Andrey
:thanx:

mirror: MultiUp l Narod

_________________


Top
 Profile E-mail  
 
 
PostPosted: 23 Nov 2012 
Персональный статус
User avatar
Joined: 22 Oct 2011
Posts: 352
Lоcаtion: Moscow
Age: 60
Name: Серёжа
:thanx:


Top
 Profile E-mail  
 
Display posts from previous:  Sort by  
Post new topic Reply to topic  [ 3 posts ] 

All times are UTC + 3 hours


Who is online

Users browsing this forum: No registered users and 1 guest


You cannot post new topics in this forum
You cannot reply to topics in this forum
You cannot edit your posts in this forum
You cannot delete your posts in this forum
You cannot post attachments in this forum

Search for:
Яндекс.Метрика
Powered by phpBB © 2000, 2002, 2005, 2007 phpBB Group