\m/ 80's metal \m/

Информационно-аналитический форум "80 см пыли" (In Search We Trust) "У нас никто никуда не спешит"
Me For You - http://me-4u.com
It is currently 24 Oct 2019

All times are UTC + 3 hours

Spoiler
Chat - temporary registration for foreign users (please leave your application here)







Post new topic Reply to topic  [ 1 post ] 
Author Message
 
PostPosted: 26 Oct 2012 
А может смените мне статус?..
User avatar
Joined: 24 Sep 2012
Posts: 856
Lоcаtion: Нижегородская обл.
Age: 49
Name: Вячеслав
Image

Жанр: Melodic Hard Rock
Страна-производитель диска: Germany
Год издания: 1989
Издатель (лейбл): Bernie Productions
Номер по каталогу: B.P. 006
Страна: Germany (Bonn, North Rhine-Westphalia)
Аудиокодек: FLAC (*.flac)
Тип рипа: image+.cue
Битрейт аудио: lossless
Продолжительность: 41:42
Источник (релизер): slayer19
Наличие сканов в содержимом раздачи: да (All Scans)

Треклист:

01. Around Midnight (04:14)
02. Go Down Shootin' (03:39)
03. Just a Dream (05:41)
04. Hot for Love (03:08)
05. Thrills in the Night (03:22)
06. Miss Marple (04:05)
07. Fasten Seatbelts (03:47)
08. Hard Enough (04:20)
09. Now It's your Turn (06:39)
10. Mother Earth (02:47)

"Лог создания рипа"
Exact Audio Copy V1.0 beta 3 from 29. August 2011

Отчёт EAC об извлечении, выполненном 24. октября 2012, 13:54

Trans Am / Fasten Seatbelts

Дисковод: Optiarc DVD RW AD-7200A Adapter: 0 ID: 0

Режим чтения : Достоверность
Использование точного потока : Да
Отключение кэша аудио : Да
Использование указателей C2 : Нет

Коррекция смещения при чтении : 48
Способность читать области Lead-in и Lead-out : Нет
Заполнение пропущенных сэмплов тишиной : Да
Удаление блоков с тишиной в начале и конце : Нет
При вычислениях CRC использовались нулевые сэмплы : Да
Интерфейс : Встроенный Win32-интерфейс для Win NT/2000

Выходной формат : Пользовательский кодировщик
Выбранный битрейт : 128 kBit/s
Качество : Высокий
Добавление ID3-тега : Нет
Утилита сжатия : C:\Program Files\FLAC\FLAC frontend.exe

TOC извлечённого CD

Трек | Старт | Длительность | Начальный сектор | Конечный сектор
---------------------------------------------------------------------
1 | 0:00.00 | 4:14.37 | 0 | 19086
2 | 4:14.37 | 3:39.35 | 19087 | 35546
3 | 7:53.72 | 5:40.55 | 35547 | 61101
4 | 13:34.52 | 3:07.70 | 61102 | 75196
5 | 16:42.47 | 3:21.48 | 75197 | 90319
6 | 20:04.20 | 4:04.60 | 90320 | 108679
7 | 24:09.05 | 3:46.62 | 108680 | 125691
8 | 27:55.67 | 4:20.15 | 125692 | 145206
9 | 32:16.07 | 6:38.45 | 145207 | 175101
10 | 38:54.52 | 2:47.03 | 175102 | 187629

Характеристики диапазона извлечения и сообщения об ошибках

Выбранный диапазон

Имя файла D:\МОИ ФАЙЛЫ\LOSSLESS\slayer19\Trans Am - Fasten Seatbelts.wav

Пиковый уровень 88.2 %
Скорость извлечения 3.6 X
Качество диапазона 100.0 %
CRC теста B8FCA6D1
CRC копии B8FCA6D1
Копирование... OK

Ошибок не произошло

AccurateRip: сводка

Трек 1 : извлечено точно (доверие 1) [29881381] (AR v1)
Трек 2 : извлечено точно (доверие 1) [50F27E61] (AR v1)
Трек 3 : извлечено точно (доверие 1) [16E9F20E] (AR v1)
Трек 4 : извлечено точно (доверие 1) [5B429B20] (AR v1)
Трек 5 : извлечено точно (доверие 1) [CFE6C78F] (AR v1)
Трек 6 : извлечено точно (доверие 1) [4C8F6115] (AR v1)
Трек 7 : извлечено точно (доверие 1) [BABBD725] (AR v1)
Трек 8 : извлечено точно (доверие 1) [2B733FA9] (AR v1)
Трек 9 : извлечено точно (доверие 1) [6FF572D2] (AR v1)
Трек 10 : извлечено точно (доверие 1) [50FFF06B] (AR v1)

Все треки извлечены точно

Конец отчёта

---- CUETools DB Plugin V2.1.3

[CTDB TOCID: .S8U0Gd3JHY3domogQrzNTLWSIw-] disk not present in database, Submit result: .S8U0Gd3JHY3domogQrzNTLWSIw- has been uploaded

==== Контрольная сумма отчёта 9D914EC53B8C268D309BAB833EF2A194FD38181CF24BF2A903C5BF53F6C92BE3 ====

"Фото"
Image


Скачать: Trans Am - Fasten Seatbelts (1989) by slayer19.rar

_________________
Image


Top
 Profile E-mail  
 
Display posts from previous:  Sort by  
Post new topic Reply to topic  [ 1 post ] 

All times are UTC + 3 hours


Who is online

Users browsing this forum: No registered users and 1 guest


You cannot post new topics in this forum
You cannot reply to topics in this forum
You cannot edit your posts in this forum
You cannot delete your posts in this forum
You cannot post attachments in this forum

Search for:
Яндекс.Метрика
Powered by phpBB © 2000, 2002, 2005, 2007 phpBB Group