\m/ 80's metal \m/

Информационно-аналитический форум "80 см пыли" (In Search We Trust) "У нас никто никуда не спешит"
Me For You - http://me-4u.com
It is currently 21 Sep 2019

All times are UTC + 3 hours

Spoiler
Chat - temporary registration for foreign users (please leave your application here)







Post new topic Reply to topic  [ 4 posts ] 
Author Message
 
PostPosted: 24 Jul 2012 
Труъ
User avatar
Joined: 05 Oct 2008
Posts: 194
Lоcаtion: Saint Petersburg
Age: 46
Name: Jesse
Image

TWINSPIRITS - The Music That Will Heal The World

Year: 2007
Style: Progressive Metal
Country: Italy (Padua, Veneto)
Label: Lion Music [LMC 210]
Format: EAC-FLAC+CUE+LOG + 5% recovery+ Scans
Size: 732 Mb


Image

TRACK LIST:

1. Projected 04:22
2. Back To Reality 07:16
3. What You Want 06:54
4. Take My Hand 07:51
5. Power To Kill 05:54
6. Understand 10:01
7. Fire 07:32
8. It’s Just Life 07:27
9. The Music That Will Heal The World 12:38

Produced by Daniele Liverani, mixed and mastered
by Simone Mularoni and Gabriele Ravaglia


LINE-UP:

Søren "Nico" Adamsen - Vocals (ex-Maladaptive, ex-Starrats,
Crystal Eyes, Artillery)
Tommy Ermolli - Guitar (Khymera)
Daniele Liverani - Keyboards (Genius, Empty Tremor, Khymera)
Alberto Rigoni - Bass
Dario Ciccioni - Drums (Genius, Daniele Liverani, Khymera)
Additional backing vocals by Irene Ermolli

log
Exact Audio Copy V0.99 prebeta 4 from 23. January 2008

Отчёт EAC об извлечении, выполненном 29. июля 2010, 15:01

Twinspirits / The Music That Will Heal The World

Дисковод: ASUS CRW-5224A Adapter: 3 ID: 0

Режим чтения : Достоверность
Использование точного потока : Да
Отключение кэша аудио : Да
Использование указателей C2 : Нет

Коррекция смещения при чтении : 6
Способность читать области Lead-in и Lead-out : Нет
Заполнение пропущенных сэмплов тишиной : Да
Удаление блоков с тишиной в начале и конце : Нет
При вычислениях CRC использовались нулевые сэмплы : Да
Интерфейс : Установленный внешний ASPI-интерфейс

Выходной формат : Внутренние WAV-операции
Формат сэмплов : 44.100 Гц; 16 бит; стерео


TOC извлечённого CD

Трек | Старт | Длительность | Начальный сектор | Конечный сектор
---------------------------------------------------------------------
1 | 0:00.00 | 4:22.47 | 0 | 19696
2 | 4:22.47 | 7:16.64 | 19697 | 52460
3 | 11:39.36 | 6:54.46 | 52461 | 83556
4 | 18:34.07 | 7:51.45 | 83557 | 118926
5 | 26:25.52 | 5:54.08 | 118927 | 145484
6 | 32:19.60 | 10:01.62 | 145485 | 190621
7 | 42:21.47 | 7:32.30 | 190622 | 224551
8 | 49:54.02 | 7:27.22 | 224552 | 258098
9 | 57:21.24 | 12:39.07 | 258099 | 315030


Характеристики диапазона извлечения и сообщения об ошибках

Выбранный диапазон

Имя файла H:CdTwinspirits - The Music That Will Heal The World by Omarao.wav

Пиковый уровень 100.0 %
Качество диапазона 99.9 %
CRC копии 6F041BB8
Копирование... OK

Ошибок не произошло

Конец отчёта


NAROD
password: jesse


Top
 Profile  
 
 
PostPosted: 24 Jul 2012 
Хиппей (support team)
User avatar
Joined: 30 Jul 2007
Posts: 114411
Lоcаtion: Киев (Kyiv, UA)
Age: 46
Name: Andrey
:thanx:

_________________


Top
 Profile E-mail  
 
 
PostPosted: 03 Sep 2013 
Зарегился вот...
Joined: 30 Jul 2009
Posts: 9
Name: Сергей
Можете перезалить? Ссылка умерла.


Top
 Profile E-mail  
 
 
PostPosted: 03 Sep 2013 
Хиппей (support team)
User avatar
Joined: 30 Jul 2007
Posts: 114411
Lоcаtion: Киев (Kyiv, UA)
Age: 46
Name: Andrey
А она была залита уже дохленькой :dance:

_________________


Top
 Profile E-mail  
 
Display posts from previous:  Sort by  
Post new topic Reply to topic  [ 4 posts ] 

All times are UTC + 3 hours


Who is online

Users browsing this forum: No registered users and 1 guest


You cannot post new topics in this forum
You cannot reply to topics in this forum
You cannot edit your posts in this forum
You cannot delete your posts in this forum
You cannot post attachments in this forum

Search for:
Яндекс.Метрика
Powered by phpBB © 2000, 2002, 2005, 2007 phpBB Group