\m/ 80's metal \m/

Информационно-аналитический форум "80 см пыли" (In Search We Trust) "У нас никто никуда не спешит"
Me For You - http://me-4u.com
It is currently 23 Jul 2019

All times are UTC + 3 hours

Spoiler
Chat - temporary registration for foreign users (please leave your application here)







Post new topic Reply to topic  [ 1 post ] 
Author Message
 
PostPosted: 24 Jul 2012 
Труъ
User avatar
Joined: 05 Oct 2008
Posts: 194
Lоcаtion: Saint Petersburg
Age: 46
Name: Jesse
Image

TWINSPIRITS - The Forbidden City

Year: 2009
Style: Progressive Metal
Country: Italy (Padua, Veneto)
Label: Lion Music [LMC 268]
Format: EAC-FLAC+CUE+LOG
Size: 556 Mb + 5% recovery


Image

TRACK LIST:

1. The Forbidden City
2. Taste the Infinity
3. Number One
4. Everything
5. One of Us
6. BTR
7. Hide this Feeling
8. My Future
9. Reaction
10. I Am Free


Image


LINE-UP:


Göran Nyström - vocals (Dimension 34, Paincraze)
Tommy Ermolli - Guitar (Khymera, Cosmics)
Daniele Liverani - Keyboards (Genius, Empty Tremor, Khymera)
Alberto Rigoni - Bass
Dario Ciccioni - Drums (Genius, Daniele Liverani, Khymera,
Centrica, Hartmann, Empyrios, Opera, Concept Of Main Art)
Irene Ermolli – guest vocals on 7, back. vocals on 8
David Åkesson – add. backing vocals on 8 (Moonlight Agony)

Produced by Daniele Liverani, mixed and mastered
by Simone Mularoni and Gabriele Ravaglia


log
Отчёт EAC об извлечении, выполненном 22. июля 2010, 0:30

Twinspirits / The Forbidden City

Дисковод: ASUS CRW-5224A Adapter: 3 ID: 0

Режим чтения : Достоверность
Использование точного потока : Да
Отключение кэша аудио : Да
Использование указателей C2 : Нет

Коррекция смещения при чтении : 6
Способность читать области Lead-in и Lead-out : Нет
Заполнение пропущенных сэмплов тишиной : Да
Удаление блоков с тишиной в начале и конце : Нет
При вычислениях CRC использовались нулевые сэмплы : Да
Интерфейс : Установленный внешний ASPI-интерфейс

Выходной формат : Внутренние WAV-операции
Формат сэмплов : 44.100 Гц; 16 бит; стерео


TOC извлечённого CD

Трек | Старт | Длительность | Начальный сектор | Конечный сектор
---------------------------------------------------------------------
1 | 0:00.00 | 10:18.38 | 0 | 46387
2 | 10:18.38 | 5:54.46 | 46388 | 72983
3 | 16:13.09 | 4:39.21 | 72984 | 93929
4 | 20:52.30 | 7:44.41 | 93930 | 128770
5 | 28:36.71 | 6:31.69 | 128771 | 158164
6 | 35:08.65 | 5:40.26 | 158165 | 183690
7 | 40:49.16 | 4:41.03 | 183691 | 204768
8 | 45:30.19 | 6:39.32 | 204769 | 234725
9 | 52:09.51 | 6:02.36 | 234726 | 261911
10 | 58:12.12 | 10:25.42 | 261912 | 308828


Характеристики диапазона извлечения и сообщения об ошибках

Выбранный диапазон

Имя файла H:CdTwinspirits - The Forbidden City by Omarao.wav

Пиковый уровень 96.5 %
Качество диапазона 100.0 %
CRC копии A5368139
Копирование... OK

Ошибок не произошло

Конец отчёта


NAROD
password: hpml


Top
 Profile  
 
Display posts from previous:  Sort by  
Post new topic Reply to topic  [ 1 post ] 

All times are UTC + 3 hours


Who is online

Users browsing this forum: No registered users and 2 guests


You cannot post new topics in this forum
You cannot reply to topics in this forum
You cannot edit your posts in this forum
You cannot delete your posts in this forum
You cannot post attachments in this forum

Search for:
Яндекс.Метрика
Powered by phpBB © 2000, 2002, 2005, 2007 phpBB Group