\m/ 80's metal \m/

Информационно-аналитический форум "80 см пыли" (In Search We Trust) "У нас никто никуда не спешит"
Me For You - http://me-4u.com
It is currently 17 Jul 2019

All times are UTC + 3 hours

Spoiler
Chat - temporary registration for foreign users (please leave your application here)







Post new topic Reply to topic  [ 2 posts ] 
Author Message
 
PostPosted: 24 Jul 2012 
Труъ
User avatar
Joined: 05 Oct 2008
Posts: 194
Lоcаtion: Saint Petersburg
Age: 46
Name: Jesse
Image

THIRD EYE - Recipe For Disaster

Band: Third Eye
Country: Denmark
Album: Recipe For Disaster
Year: 2010
Style: Progressive Power Metal
Quality: EAC-FLAC, cue, log + 5% recovery
Size: 517 Mb
Label: Escape Music
Uploadserver: Narod


Image

TRACK LIST:

1. Solitary Confinement 04:58
2. Recipe For Disaster 06:30
3. Dark Angel 05:59
4. Six Feet Under 05:20
5. Eye Of Envy 08:56
6. Psychological Breakthrough 05:02
7. Darkness Into Dawn 07:13
8. Snake In The Grass 05:57
9. The Sacred And The Profane 05:59
10. The Psychiatrist 10:48

-----------------------------------
Total playing time: 66:42

Produced by Third Eye, mixed and mastered by Tommy Hansen

LINE-UP:
Per Johansson - Vocals (Fate (Dnk), Ureas)
Michael Bodin - Guitars (Prophecy (Dnk), Prophets of Doom)
Thomas Kuhlmann - Guitars
Martin Damgaard - Keyboards
Andreas Schumann - Bass
Martin Damgaard – Drums
Finn Zierler – keyboards on 2, 5 & 10 (Beyond Twilight)
Tommy Hansen – keyboards on 3, 4, 7-10


log
Exact Audio Copy V0.99 prebeta 4 from 23. January 2008

Отчёт EAC об извлечении, выполненном 9. июля 2010, 3:24

Third Eye / Recipe For Disaster

Дисковод: ASUS CRW-5224A Adapter: 3 ID: 0

Режим чтения : Достоверность
Использование точного потока : Да
Отключение кэша аудио : Да
Использование указателей C2 : Нет

Коррекция смещения при чтении : 6
Способность читать области Lead-in и Lead-out : Нет
Заполнение пропущенных сэмплов тишиной : Да
Удаление блоков с тишиной в начале и конце : Нет
При вычислениях CRC использовались нулевые сэмплы : Да
Интерфейс : Установленный внешний ASPI-интерфейс

Выходной формат : Внутренние WAV-операции
Формат сэмплов : 44.100 Гц; 16 бит; стерео


TOC извлечённого CD

Трек | Старт | Длительность | Начальный сектор | Конечный сектор
---------------------------------------------------------------------
1 | 0:00.00 | 5:00.02 | 0 | 22501
2 | 5:00.02 | 6:31.62 | 22502 | 51888
3 | 11:31.64 | 6:01.58 | 51889 | 79021
4 | 17:33.47 | 5:21.44 | 79022 | 103140
5 | 22:55.16 | 8:56.62 | 103141 | 143402
6 | 31:52.03 | 5:04.25 | 143403 | 166227
7 | 36:56.28 | 7:14.40 | 166228 | 198817
8 | 44:10.68 | 5:57.58 | 198818 | 225650
9 | 50:08.51 | 6:00.45 | 225651 | 252695
10 | 56:09.21 | 10:48.51 | 252696 | 301346


Характеристики диапазона извлечения и сообщения об ошибках

Выбранный диапазон

Имя файла H:CdThird Eye - Recipe For Disaster by Omarao.wav

Пиковый уровень 99.9 %
Качество диапазона 99.9 %
CRC копии 6F66180E
Копирование... OK

Ошибок не произошло

Конец отчёта


NAROD
password: jesse


Top
 Profile  
 
 
PostPosted: 24 Jul 2012 
Хиппей (support team)
User avatar
Joined: 30 Jul 2007
Posts: 113517
Lоcаtion: Киев (Kyiv, UA)
Age: 46
Name: Andrey
:thanx:

_________________


Top
 Profile E-mail  
 
Display posts from previous:  Sort by  
Post new topic Reply to topic  [ 2 posts ] 

All times are UTC + 3 hours


Who is online

Users browsing this forum: No registered users and 1 guest


You cannot post new topics in this forum
You cannot reply to topics in this forum
You cannot edit your posts in this forum
You cannot delete your posts in this forum
You cannot post attachments in this forum

Search for:
Яндекс.Метрика
Powered by phpBB © 2000, 2002, 2005, 2007 phpBB Group