\m/ 80's metal \m/

Информационно-аналитический форум "80 см пыли" (In Search We Trust) "У нас никто никуда не спешит"
Me For You - http://me-4u.com
It is currently 15 Oct 2019

All times are UTC + 3 hours

Spoiler
Chat - temporary registration for foreign users (please leave your application here)







Post new topic Reply to topic  [ 5 posts ] 
Author Message
 
PostPosted: 21 Jun 2012 
Хиппей (support team)
User avatar
Joined: 30 Jul 2007
Posts: 114829
Lоcаtion: Киев (Kyiv, UA)
Age: 46
Name: Andrey
Talas - 1998 - If We Only Knew Then What We Know Now... [flac] - live

Image
Image

Genre: Hard Rock
Location: USA
Format: flac + cue + log + scans
Size: 540 Mb


Line-up:

Billy Sheehan - bass, vocals
Dave Constantino - guitars, vocals
Paul Varga - drums, vocals

    1. Sink Your Teeth Into That - 04:09
    2. High Speed On Ice - 03:32
    3. Expert On Me - 03:14
    4. Never See Me Cry - 04:45
    5. Power To Break Away - 03:52
    6. Thick Head - 04:01
    7. Tell Me True - 05:25
    8. You - 03:54
    9. Most People - 03:04
    10. Any Other Day - 04:58
    11. King Of the World - 03:21
    12. Drum Solo - 01:29
    13. Shy Boy - 02:40
    14. 21st Century Schizoid Man - 08:31
    15. See Saw - 05:08
    16. Bass Solo - 01:27
    17. Battle Scar - 06:25

    TPT: 69:55

Группа названа в честь города в Киргизии? :vic:

Для тех, кто с коллективом мало знаком, этот заловый альбом покажется скучным, слишком простым, медленным и без "огонька".
На самом деле это совсем не так. Ребята отменно отыграли классический сэт и сделали это в своей узнаваемой мелодичной манере и без выпендрёжа.
Слушал и наслаждался :meloman:

зы. Ну, обожаю я живые записи :pardon:

7/10

M-Cloud l Narod

Источник: рип взят c rutracker.org

log
Exact Audio Copy V1.0 beta 3 from 29. August 2011

EAC extraction logfile from 28. April 2012, 10:36

Talas / If We Only Knew Then What We Know Now...

Used drive : ASUS DRW-24B1ST Adapter: 2 ID: 0

Read mode : Secure
Utilize accurate stream : Yes
Defeat audio cache : Yes
Make use of C2 pointers : No

Read offset correction : 6
Overread into Lead-In and Lead-Out : No
Fill up missing offset samples with silence : Yes
Delete leading and trailing silent blocks : No
Null samples used in CRC calculations : Yes
Used interface : Native Win32 interface for Win NT & 2000

Used output format : User Defined Encoder
Selected bitrate : 1024 kBit/s
Quality : High
Add ID3 tag : No
Command line compressor : C:\Program Files (x86)\Exact Audio Copy\Flac\flac.exe
Additional command line options : -V -8 -T "Date=%year%" -T "Genre=%genre%" %source%


TOC of the extracted CD

Track | Start | Length | Start sector | End sector
---------------------------------------------------------
1 | 0:00.00 | 4:08.57 | 0 | 18656
2 | 4:08.57 | 3:32.28 | 18657 | 34584
3 | 7:41.10 | 3:14.12 | 34585 | 49146
4 | 10:55.22 | 4:45.05 | 49147 | 70526
5 | 15:40.27 | 3:51.68 | 70527 | 87919
6 | 19:32.20 | 4:00.55 | 87920 | 105974
7 | 23:33.00 | 5:24.50 | 105975 | 130324
8 | 28:57.50 | 3:54.25 | 130325 | 147899
9 | 32:52.00 | 3:04.30 | 147900 | 161729
10 | 35:56.30 | 4:57.71 | 161730 | 184075
11 | 40:54.26 | 3:20.65 | 184076 | 199140
12 | 44:15.16 | 1:28.60 | 199141 | 205800
13 | 45:44.01 | 2:40.00 | 205801 | 217800
14 | 48:24.01 | 8:30.70 | 217801 | 256120
15 | 56:54.71 | 5:08.12 | 256121 | 279232
16 | 62:03.08 | 1:26.65 | 279233 | 285747
17 | 63:29.73 | 6:25.18 | 285748 | 314640


Range status and errors

Selected range

Filename F:\Torrent\# MY\Talas - If We Only Knew Then What We Know Now... (1998)\Talas - If We Only Knew Then What We Know Now....wav

Peak level 99.8 %
Extraction speed 5.6 X
Range quality 99.9 %
Test CRC D9EEB9E9
Copy CRC D9EEB9E9
Copy OK

No errors occurred


AccurateRip summary

Track 1 accurately ripped (confidence 4) [84911667] (AR v1)
Track 2 accurately ripped (confidence 4) [EC008348] (AR v1)
Track 3 accurately ripped (confidence 4) [AE625367] (AR v1)
Track 4 accurately ripped (confidence 4) [41A27B99] (AR v1)
Track 5 accurately ripped (confidence 4) [5B812103] (AR v1)
Track 6 accurately ripped (confidence 4) [C2A43A1D] (AR v1)
Track 7 accurately ripped (confidence 4) [607DCC34] (AR v1)
Track 8 accurately ripped (confidence 4) [56C0EA70] (AR v1)
Track 9 accurately ripped (confidence 4) [B8098718] (AR v1)
Track 10 accurately ripped (confidence 4) [DFC4CE03] (AR v1)
Track 11 accurately ripped (confidence 4) [AF5955C4] (AR v1)
Track 12 accurately ripped (confidence 4) [FABD92C7] (AR v1)
Track 13 accurately ripped (confidence 4) [13EFA053] (AR v1)
Track 14 accurately ripped (confidence 4) [7D23BBFA] (AR v1)
Track 15 accurately ripped (confidence 4) [D290DFCB] (AR v1)
Track 16 accurately ripped (confidence 4) [297DE291] (AR v1)
Track 17 accurately ripped (confidence 4) [CF76684A] (AR v1)

All tracks accurately ripped

End of status report

==== Log checksum B3D7475A9BC501C94FC8E9F22F77968C4C5B7B153DEE870282E555BCFDAB225D ====

cue
REM GENRE "Hard Rock"
REM DATE 1998
REM DISCID FD106311
REM COMMENT "ExactAudioCopy v1.0b3"
PERFORMER "Talas"
TITLE "If We Only Knew Then What We Know Now..."
FILE "Talas - If We Only Knew Then What We Know Now....flac" WAVE
TRACK 01 AUDIO
TITLE "Sink Your Teeth Into That"
PERFORMER "Talas"
FLAGS DCP
INDEX 01 00:00:00
TRACK 02 AUDIO
TITLE "High Speed On Ice"
PERFORMER "Talas"
FLAGS DCP
INDEX 01 04:08:57
TRACK 03 AUDIO
TITLE "Expert On Me"
PERFORMER "Talas"
FLAGS DCP
INDEX 01 07:41:10
TRACK 04 AUDIO
TITLE "Never See Me Cry"
PERFORMER "Talas"
FLAGS DCP
INDEX 01 10:55:22
TRACK 05 AUDIO
TITLE "Power To Break Away"
PERFORMER "Talas"
FLAGS DCP
INDEX 01 15:40:27
TRACK 06 AUDIO
TITLE "Thick Head"
PERFORMER "Talas"
FLAGS DCP
INDEX 01 19:32:20
TRACK 07 AUDIO
TITLE "Tell Me True"
PERFORMER "Talas"
FLAGS DCP
INDEX 01 23:33:00
TRACK 08 AUDIO
TITLE "You"
PERFORMER "Talas"
FLAGS DCP
INDEX 01 28:57:50
TRACK 09 AUDIO
TITLE "Most People"
PERFORMER "Talas"
FLAGS DCP
INDEX 00 32:51:74
INDEX 01 32:52:00
TRACK 10 AUDIO
TITLE "Any Other Day"
PERFORMER "Talas"
FLAGS DCP
INDEX 01 35:56:30
TRACK 11 AUDIO
TITLE "King Of The World"
PERFORMER "Talas"
FLAGS DCP
INDEX 01 40:54:26
TRACK 12 AUDIO
TITLE "Drum Solo"
PERFORMER "Talas"
FLAGS DCP
INDEX 01 44:15:16
TRACK 13 AUDIO
TITLE "Shy Boy"
PERFORMER "Talas"
FLAGS DCP
INDEX 01 45:44:01
TRACK 14 AUDIO
TITLE "21st Century Schizoid Man"
PERFORMER "Talas"
FLAGS DCP
INDEX 01 48:24:01
TRACK 15 AUDIO
TITLE "See Saw"
PERFORMER "Talas"
FLAGS DCP
INDEX 01 56:54:71
TRACK 16 AUDIO
TITLE "Bass Solo"
PERFORMER "Talas"
FLAGS DCP
INDEX 01 62:03:08
TRACK 17 AUDIO
TITLE "Battle Scar"
PERFORMER "Talas"
FLAGS DCP
INDEX 01 63:29:73

spectrum
Image

_________________


Top
 Profile E-mail  
 
 
PostPosted: 22 Jun 2012 
***


Last edited by Вася_металлист_2012 on 14 Dec 2012, edited 3 times in total.

Top
  
 
 
PostPosted: 22 Jun 2012 
***


Last edited by Вася_металлист_2012 on 14 Dec 2012, edited 2 times in total.

Top
  
 
 
PostPosted: 22 Jun 2012 
Хиппей (support team)
User avatar
Joined: 30 Jul 2007
Posts: 114829
Lоcаtion: Киев (Kyiv, UA)
Age: 46
Name: Andrey
Вася_металлист_2012 wrote:
Ничо что я немного помог?

=) Спасибо :thanx:
Уже завтра перекопирну и добавлю поминутку...

_________________


Top
 Profile E-mail  
 
 
PostPosted: 28 Jun 2012 
Персональный статус
User avatar
Joined: 22 Oct 2011
Posts: 352
Lоcаtion: Moscow
Age: 60
Name: Серёжа
Не люблю концертники из-за того, что звучат они хуже студийников и не звучат так как вживую на концерте.
Люблю концертники за то, что некоторые группы на них допускают вольности и играют то, чего нет в студийных вариантах.
Sheehan просто обалденный басист!!


Top
 Profile E-mail  
 
Display posts from previous:  Sort by  
Post new topic Reply to topic  [ 5 posts ] 

All times are UTC + 3 hours


Who is online

Users browsing this forum: No registered users and 2 guests


You cannot post new topics in this forum
You cannot reply to topics in this forum
You cannot edit your posts in this forum
You cannot delete your posts in this forum
You cannot post attachments in this forum

Search for:
Яндекс.Метрика
Powered by phpBB © 2000, 2002, 2005, 2007 phpBB Group