\m/ 80's metal \m/

Информационно-аналитический форум "80 см пыли" (In Search We Trust) "У нас никто никуда не спешит"
Me For You - http://me-4u.com
It is currently 24 Jul 2019

All times are UTC + 3 hours

Spoiler
Chat - temporary registration for foreign users (please leave your application here)







Post new topic Reply to topic  [ 60 posts ]  Go to page Previous  1, 2, 3
Author Message
 
PostPosted: 12 Nov 2018 
Хиппей (support team)
User avatar
Joined: 30 Jul 2007
Posts: 113651
Lоcаtion: Киев (Kyiv, UA)
Age: 46
Name: Andrey
Начинаю слушать альбом 16-го года. И вот уже вторая песня показывает себя во всех красках.
Старпёрский солидный Hard Rock с харизмой и умелым подходом к композиторским фишкам.
Как минимум музыку хочется слушать и наслаждаться :meloman:
Да, скорее всего и здесь скоростных вещей уже не будет, как и раньше. Но музыка то шикарна и, конечно же, полностью все песни хитовые будут :lob: :lob: :lob:

_________________


Top
 Profile E-mail  
 
 
PostPosted: 12 Nov 2018 
Хиппей (support team)
User avatar
Joined: 30 Jul 2007
Posts: 113651
Lоcаtion: Киев (Kyiv, UA)
Age: 46
Name: Andrey
Tango Down - 2016 - Bulletproof [flacs]

Image Image Image

mirror: Uloz l Drop l Narod l M-Cloud

Image Image Image Image

Image Image Image Image

log
Exact Audio Copy V1.1 from 23. June 2015

EAC extraction logfile from 1. October 2016, 21:43

Tango Down / Bulletproof

Used drive : TSSTcorpCDDVDW SH-224DB Adapter: 1 ID: 0

Read mode : Secure
Utilize accurate stream : Yes
Defeat audio cache : Yes
Make use of C2 pointers : No

Read offset correction : 6
Overread into Lead-In and Lead-Out : No
Fill up missing offset samples with silence : Yes
Delete leading and trailing silent blocks : No
Null samples used in CRC calculations : Yes
Used interface : Native Win32 interface for Win NT & 2000
Gap handling : Appended to previous track

Used output format : User Defined Encoder
Selected bitrate : 1024 kBit/s
Quality : High
Add ID3 tag : No
Command line compressor : C:\Program Files (x86)\Exact Audio Copy\win64\flac.exe
Additional command line options : -V -8 -T "Date=%year%" -T "Genre=%genre%" %source%


TOC of the extracted CD

Track | Start | Length | Start sector | End sector
---------------------------------------------------------
1 | 0:00.00 | 3:59.15 | 0 | 17939
2 | 3:59.15 | 3:31.12 | 17940 | 33776
3 | 7:30.27 | 4:14.62 | 33777 | 52888
4 | 11:45.14 | 4:52.47 | 52889 | 74835
5 | 16:37.61 | 3:49.66 | 74836 | 92076
6 | 20:27.52 | 4:53.14 | 92077 | 114065
7 | 25:20.66 | 3:56.29 | 114066 | 131794
8 | 29:17.20 | 3:55.34 | 131795 | 149453
9 | 33:12.54 | 3:31.22 | 149454 | 165300
10 | 36:44.01 | 4:07.51 | 165301 | 183876


Track 1

Filename C:\Sket4er\Tango Down - Bulletproof (2016)\01 Punching Bag.wav

Pre-gap length 0:00:02.00

Peak level 98.4 %
Extraction speed 1.9 X
Track quality 100.0 %
Test CRC BF64D5EF
Copy CRC BF64D5EF
Track not present in AccurateRip database
Copy OK

Track 2

Filename C:\Sket4er\Tango Down - Bulletproof (2016)\02 Give Me A Reason.wav

Pre-gap length 0:00:01.57

Peak level 98.0 %
Extraction speed 1.8 X
Track quality 99.9 %
Test CRC BB431E4F
Copy CRC BB431E4F
Track not present in AccurateRip database
Copy OK

Track 3

Filename C:\Sket4er\Tango Down - Bulletproof (2016)\03 Bulletproof.wav

Pre-gap length 0:00:01.57

Peak level 99.1 %
Extraction speed 2.3 X
Track quality 100.0 %
Test CRC 1D3CE733
Copy CRC 1D3CE733
Track not present in AccurateRip database
Copy OK

Track 4

Filename C:\Sket4er\Tango Down - Bulletproof (2016)\04 Carry On.wav

Pre-gap length 0:00:01.57

Peak level 98.5 %
Extraction speed 2.5 X
Track quality 100.0 %
Test CRC E341606F
Copy CRC E341606F
Track not present in AccurateRip database
Copy OK

Track 5

Filename C:\Sket4er\Tango Down - Bulletproof (2016)\05 When We Were Young.wav

Pre-gap length 0:00:01.57

Peak level 98.7 %
Extraction speed 2.6 X
Track quality 100.0 %
Test CRC 7542C781
Copy CRC 7542C781
Track not present in AccurateRip database
Copy OK

Track 6

Filename C:\Sket4er\Tango Down - Bulletproof (2016)\06 Going Under.wav

Pre-gap length 0:00:01.57

Peak level 99.2 %
Extraction speed 2.8 X
Track quality 100.0 %
Test CRC 747B98D3
Copy CRC 747B98D3
Track not present in AccurateRip database
Copy OK

Track 7

Filename C:\Sket4er\Tango Down - Bulletproof (2016)\07 Superstar.wav

Pre-gap length 0:00:01.57

Peak level 98.2 %
Extraction speed 2.3 X
Track quality 99.9 %
Test CRC 069E83FF
Copy CRC 069E83FF
Track not present in AccurateRip database
Copy OK

Track 8

Filename C:\Sket4er\Tango Down - Bulletproof (2016)\08 Edge Of Goodbye.wav

Pre-gap length 0:00:01.57

Peak level 98.8 %
Extraction speed 3.0 X
Track quality 100.0 %
Test CRC BA0A9DDB
Copy CRC BA0A9DDB
Track not present in AccurateRip database
Copy OK

Track 9

Filename C:\Sket4er\Tango Down - Bulletproof (2016)\09 Anything Can Change.wav

Pre-gap length 0:00:01.57

Peak level 99.1 %
Extraction speed 3.0 X
Track quality 100.0 %
Test CRC 3E657248
Copy CRC 3E657248
Track not present in AccurateRip database
Copy OK

Track 10

Filename C:\Sket4er\Tango Down - Bulletproof (2016)\10 Broken Heart.wav

Pre-gap length 0:00:01.57

Peak level 97.8 %
Extraction speed 2.6 X
Track quality 99.9 %
Test CRC A71FDDC8
Copy CRC A71FDDC8
Track not present in AccurateRip database
Copy OK


None of the tracks are present in the AccurateRip database

No errors occurred

End of status report

---- CUETools DB Plugin V2.1.6

[CTDB TOCID: 8HxFc7Eh28Qyg3aJD4N0eKzh_qw-] found
Submit result: 8HxFc7Eh28Qyg3aJD4N0eKzh_qw- has been confirmed
Track | CTDB Status
1 | (2/2) Accurately ripped
2 | (2/2) Accurately ripped
3 | (2/2) Accurately ripped
4 | (2/2) Accurately ripped
5 | (2/2) Accurately ripped
6 | (2/2) Accurately ripped
7 | (2/2) Accurately ripped
8 | (2/2) Accurately ripped
9 | (2/2) Accurately ripped
10 | (2/2) Accurately ripped


==== Log checksum 6A42DD8F705BD5CE8E5571DA32F89AA8827C0847172FB946BFC9276A742B2FE9 ====

cue
REM GENRE "Hard Rock"
REM DATE 2016
REM DISCID 8C09930A
REM COMMENT "ExactAudioCopy v1.1"
PERFORMER "Tango Down"
TITLE "Bulletproof"
FILE "01 Punching Bag.wav" WAVE
TRACK 01 AUDIO
TITLE "Punching Bag"
PERFORMER "Tango Down"
INDEX 01 00:00:00
TRACK 02 AUDIO
TITLE "Give Me A Reason"
PERFORMER "Tango Down"
INDEX 00 03:57:33
FILE "02 Give Me A Reason.wav" WAVE
INDEX 01 00:00:00
TRACK 03 AUDIO
TITLE "Bulletproof"
PERFORMER "Tango Down"
INDEX 00 03:29:30
FILE "03 Bulletproof.wav" WAVE
INDEX 01 00:00:00
TRACK 04 AUDIO
TITLE "Carry On"
PERFORMER "Tango Down"
INDEX 00 04:13:05
FILE "04 Carry On.wav" WAVE
INDEX 01 00:00:00
TRACK 05 AUDIO
TITLE "When We Were Young"
PERFORMER "Tango Down"
INDEX 00 04:50:65
FILE "05 When We Were Young.wav" WAVE
INDEX 01 00:00:00
TRACK 06 AUDIO
TITLE "Going Under"
PERFORMER "Tango Down"
INDEX 00 03:48:09
FILE "06 Going Under.wav" WAVE
INDEX 01 00:00:00
TRACK 07 AUDIO
TITLE "Superstar"
PERFORMER "Tango Down"
INDEX 00 04:51:32
FILE "07 Superstar.wav" WAVE
INDEX 01 00:00:00
TRACK 08 AUDIO
TITLE "Edge Of Goodbye"
PERFORMER "Tango Down"
INDEX 00 03:54:47
FILE "08 Edge Of Goodbye.wav" WAVE
INDEX 01 00:00:00
TRACK 09 AUDIO
TITLE "Anything Can Change"
PERFORMER "Tango Down"
INDEX 00 03:53:52
FILE "09 Anything Can Change.wav" WAVE
INDEX 01 00:00:00
TRACK 10 AUDIO
TITLE "Broken Heart"
PERFORMER "Tango Down"
INDEX 00 03:29:40
FILE "10 Broken Heart.wav" WAVE
INDEX 01 00:00:00

_________________


Top
 Profile E-mail  
 
 
PostPosted: 12 Nov 2018 
Хиппей (support team)
User avatar
Joined: 30 Jul 2007
Posts: 113651
Lоcаtion: Киев (Kyiv, UA)
Age: 46
Name: Andrey
Не, нифига, есть здесь и довольно скоростные и живчиковые песни :true: :true: :true:

9+/10

Почему на 10 из 10? Ну... постеснялся я :oops:

_________________


Top
 Profile E-mail  
 
 
PostPosted: 12 Nov 2018 
Хиппей (support team)
User avatar
Joined: 30 Jul 2007
Posts: 113651
Lоcаtion: Киев (Kyiv, UA)
Age: 46
Name: Andrey
На этом пока всё с группой. Всем спасибо за позитив :thanx:
Ловим лося от 2005 года альбома :lloo:

_________________


Top
 Profile E-mail  
 
 
PostPosted: 13 Nov 2018 
семерых одним ударом
Joined: 18 Aug 2007
Posts: 4154
Lоcаtion: Владивосток
Age: 44
Name: Николай Николаевич
Scatterbrain wrote:
А для тебя, Николай?
А для меня нет. Терпеть не могу все эти глэмовые хоровые рефрены, это не хиты а просто приближения к мтвшному формату времён их увлечения глэмом и так называемым поп-металлом . Хиты: barracuda-heart; shot in the dark-ozzy; rock you like a hurricane-scorpions; miles away-winger; ain't talking about love -Van Halen... но есть вещи, которые вряд ли побывали в топах, но это яркие вещи, одни из лучших в стиле. Напр к упомянутым riot: tor with the hammer-TNT; veteran of the psychic wars-blue oyster cult...или напр хит во всех смыслах: our house-madness


Top
 Profile  
 
 
PostPosted: 17 Nov 2018 
Хиппей (support team)
User avatar
Joined: 30 Jul 2007
Posts: 113651
Lоcаtion: Киев (Kyiv, UA)
Age: 46
Name: Andrey
aziel wrote:
Хиты: barracuda-heart; shot in the dark-ozzy; rock you like a hurricane-scorpions; miles away-winger; ain't talking about love -Van Halen...

Да, это хиты.
Но какая разница, какие хиты - тяжёлые или попсовые?
aziel wrote:
но есть вещи, которые вряд ли побывали в топах, но это яркие вещи, одни из лучших в стиле. Напр к упомянутым riot: tor with the hammer-TNT; veteran of the psychic wars-blue oyster cult...или напр хит во всех смыслах: our house-madness

:thanx:
Уже завтра-вечером послушаю их. По названиям не очень ориентируюсь. Madness - да, хитяра. Тут я название и не знал, но понял имени припева =))

_________________


Top
 Profile E-mail  
 
 
PostPosted: 17 Nov 2018 
семерых одним ударом
Joined: 18 Aug 2007
Posts: 4154
Lоcаtion: Владивосток
Age: 44
Name: Николай Николаевич
Послушай первый альбом Adam bomb, по моему он битком набит тем, что ты называешь хитами. И как по мне куда музыкальнее куперовского треша , странно что не получил соотв популярности


Top
 Profile  
 
 
PostPosted: 18 Nov 2018 
Хиппей (support team)
User avatar
Joined: 30 Jul 2007
Posts: 113651
Lоcаtion: Киев (Kyiv, UA)
Age: 46
Name: Andrey
Да слушал я его и хорошо помню. Здесь же и отмечал, если не ошибаюсь. На форуме.

_________________


Top
 Profile E-mail  
 
 
PostPosted: 18 Nov 2018 
Хиппей (support team)
User avatar
Joined: 30 Jul 2007
Posts: 113651
Lоcаtion: Киев (Kyiv, UA)
Age: 46
Name: Andrey
Scatterbrain wrote:
tor with the hammer-TNT

https://www.youtube.com/watch?v=CA65SucCe4k
Прикольная вещь в духе Пристов. И вполне хитовая, хоть и коротюсенькая и нетипичная - с припевом в финале :true: :true: :true:
Ну и классическая вставка в тему.

_________________


Top
 Profile E-mail  
 
 
PostPosted: 18 Nov 2018 
Хиппей (support team)
User avatar
Joined: 30 Jul 2007
Posts: 113651
Lоcаtion: Киев (Kyiv, UA)
Age: 46
Name: Andrey
aziel wrote:
veteran of the psychic wars-blue oyster cult

Величавая помпезность поначалу не цепляет. Но нутром чую, с третьего раза я эту песню уже буду вместе с соседями-таджиками в унисон напевать :meloman: :meloman: :meloman:

Итог.
Коля, для меня песня, как и для тебя, если я всё правильно понял, является яркой и запоминающийся почти сразу композицией.
Но вот оттенки яркости и запоминания у нас немного разные. Ну и восприятие всей песни (от вокала до музыки) чуть разные. И это хорошо.
А то, что не каждый хит это яркая песня, и не каждая яркая песня это хит.

_________________


Top
 Profile E-mail  
 
 
PostPosted: 19 Nov 2018 
семерых одним ударом
Joined: 18 Aug 2007
Posts: 4154
Lоcаtion: Владивосток
Age: 44
Name: Николай Николаевич
Scatterbrain wrote:
не каждая яркая песня это хит.

потому что хитовость ты меряешь по наличию глэмового рефрена как правило. Для меня это не есть радость для ушей, тем более масса реальных хитов из топов, которые не особо похожи на эти эмтивишные поделки


Top
 Profile  
 
 
PostPosted: 11 Dec 2018 
Я набрал 1000 сообщений!
Joined: 24 Oct 2009
Posts: 2233
Lоcаtion: Оренбург
Age: 55
Name: Юра
Tango Down - 2005 - Take 1
Облако

_________________
:dash: I am happy!


Top
 Profile E-mail  
 
 
PostPosted: 12 Dec 2018 
Хиппей (support team)
User avatar
Joined: 30 Jul 2007
Posts: 113651
Lоcаtion: Киев (Kyiv, UA)
Age: 46
Name: Andrey
Scatterbrain wrote:
не каждая яркая песня это хит.

потому что хитовость ты меряешь по наличию глэмового рефрена как правило. Для меня это не есть радость для ушей, тем более масса реальных хитов из топов, которые не особо похожи на эти эмтивишные поделки

Прикинь, я даже не знаю, шо такое рефрен :cry: А о глэмовом так вообще впервые читаю.

Зато на прошлой недели мне показали обертон на гитаре как делать :kro:

_________________


Top
 Profile E-mail  
 
 
PostPosted: 12 Dec 2018 
Хиппей (support team)
User avatar
Joined: 30 Jul 2007
Posts: 113651
Lоcаtion: Киев (Kyiv, UA)
Age: 46
Name: Andrey
Tango Down - 2005 - Take 1
Облако

:thanx:

mirror: Uloz l Drop l Narod l M-Cloud

_________________


Top
 Profile E-mail  
 
 
PostPosted: 13 Dec 2018 
Работнечег
User avatar
Joined: 28 Aug 2007
Posts: 5919
Lоcаtion: г. Москва
Age: 30
Name: Дима
Запрос закрываем, Юр?
З.Ы. Мы тег ставим found сейчас или просто рекс снимаем и всё?


Top
 Profile E-mail  
 
 
PostPosted: 13 Dec 2018 
Хиппей (support team)
User avatar
Joined: 30 Jul 2007
Posts: 113651
Lоcаtion: Киев (Kyiv, UA)
Age: 46
Name: Andrey
church wrote:
Мы тег ставим found сейчас или просто рекс снимаем и всё?

Ставим. И переносим в "Бухту" :kro:

_________________


Top
 Profile E-mail  
 
 
PostPosted: 13 Dec 2018 
Работнечег
User avatar
Joined: 28 Aug 2007
Posts: 5919
Lоcаtion: г. Москва
Age: 30
Name: Дима
:true:


Top
 Profile E-mail  
 
 
PostPosted: 13 Dec 2018 
Я набрал 1000 сообщений!
Joined: 24 Oct 2009
Posts: 2233
Lоcаtion: Оренбург
Age: 55
Name: Юра
Делайте что хотите. :crazy:

_________________
:dash: I am happy!


Top
 Profile E-mail  
 
 
PostPosted: 13 Dec 2018 
Хиппей (support team)
User avatar
Joined: 30 Jul 2007
Posts: 113651
Lоcаtion: Киев (Kyiv, UA)
Age: 46
Name: Andrey
Хорошо =))

_________________


Top
 Profile E-mail  
 
 
PostPosted: 15 Dec 2018 
Хиппей (support team)
User avatar
Joined: 30 Jul 2007
Posts: 113651
Lоcаtion: Киев (Kyiv, UA)
Age: 46
Name: Andrey
uriyy wrote:
Tango Down - 2005 - Take 1

Тоже очень классный альбом :lob: :lob: :lob:

7/10

_________________


Top
 Profile E-mail  
 
Display posts from previous:  Sort by  
Post new topic Reply to topic  [ 60 posts ]  Go to page Previous  1, 2, 3

All times are UTC + 3 hours


Who is online

Users browsing this forum: No registered users and 1 guest


You cannot post new topics in this forum
You cannot reply to topics in this forum
You cannot edit your posts in this forum
You cannot delete your posts in this forum
You cannot post attachments in this forum

Search for:
Яндекс.Метрика
Powered by phpBB © 2000, 2002, 2005, 2007 phpBB Group