\m/ 80's metal \m/

Информационно-аналитический форум "80 см пыли" (In Search We Trust) "У нас никто никуда не спешит"
Me For You - http://me-4u.com
It is currently 21 Jul 2019

All times are UTC + 3 hours

Spoiler
Chat - temporary registration for foreign users (please leave your application here)







Post new topic Reply to topic  [ 60 posts ]  Go to page Previous  1, 2, 3  Next
Author Message
 
PostPosted: 10 Nov 2018 
семерых одним ударом
Joined: 18 Aug 2007
Posts: 4154
Lоcаtion: Владивосток
Age: 44
Name: Николай Николаевич
Да какие хиты, чисто америкосовская сладкая вата. На концертах до сих пор исполняется Пойзон...


Top
 Profile  
 
 
PostPosted: 10 Nov 2018 
Хиппей (support team)
User avatar
Joined: 30 Jul 2007
Posts: 113573
Lоcаtion: Киев (Kyiv, UA)
Age: 46
Name: Andrey
Дык, а у какой хитовой группы или исполнителя на концертах исполняется больше 1-3 песни с хитовго альбома.
Зачем ты меряешь то сэт-листами хиты? :scratch:

_________________


Top
 Profile E-mail  
 
 
PostPosted: 11 Nov 2018 
Хиппей (support team)
User avatar
Joined: 30 Jul 2007
Posts: 113573
Lоcаtion: Киев (Kyiv, UA)
Age: 46
Name: Andrey
Tango Down - 2005 - Take 1 [320]

Image

mirror: Uloz l Drop l Narod l M-Cloud

Тоже очень хороший альбом, хоть и дебютный. В концовочке пару трэков в стиле Heavy Metal "приклеились" :true: :true: :true:

7/10

В топы пока забирать не буду. Послушаю ещё несколько раз...

_________________


Top
 Profile E-mail  
 
 
PostPosted: 12 Nov 2018 
Хиппей (support team)
User avatar
Joined: 30 Jul 2007
Posts: 113573
Lоcаtion: Киев (Kyiv, UA)
Age: 46
Name: Andrey
Да, альбом хорош, хитов предостаточно, но не цепляет так, как будущий :pardon:
Нет ещё той целостности, шоле, в музыке коллектива.

зы. Пшол спать и слушать третий альбом.. :meloman: Саунд там ещё мощнее, чем на втором, судя по вступительной песне.

_________________


Top
 Profile E-mail  
 
 
PostPosted: 12 Nov 2018 
семерых одним ударом
Joined: 18 Aug 2007
Posts: 4154
Lоcаtion: Владивосток
Age: 44
Name: Николай Николаевич
Я ничем не меряю хиты. Это ты какую-то срань называешь хитами. Для меня это не хиты, а просто конвейер трудно различимых песен от популярного в то время композитора-гомосека. И сомневаюсь что в best of элис что-то размещает из того альбома кроме poison.


Top
 Profile  
 
 
PostPosted: 12 Nov 2018 
Хиппей (support team)
User avatar
Joined: 30 Jul 2007
Posts: 113573
Lоcаtion: Киев (Kyiv, UA)
Age: 46
Name: Andrey
aziel wrote:
Я ничем не меряю хиты.

Поясни, плиз.
Для тебе не существует песен-хитов, или чего? :huh:

_________________


Top
 Profile E-mail  
 
 
PostPosted: 12 Nov 2018 
семерых одним ударом
Joined: 18 Aug 2007
Posts: 4154
Lоcаtion: Владивосток
Age: 44
Name: Николай Николаевич
Песня хит, это песня из топ 10. Я не мониторю, была ли в топе синглов та или иная вещь, да и не особо они мне нравятся. В альбомах встречаются яркие вещи, с хорошей мелодией или вокальным выпендрежем или чем либо ещё. На трэше такая песня одна, остальное однообразное америкосовское коммерческое кака. В те времена бон джови в схожей стилистике и с тем же соавтором делали куда более привлекательные песни. Слушал его после альбома 87 года, обплевался и до сих пор не перевариваю эту шляпу, кассу взаимопомощи поиздержавшегося старину Купера


Top
 Profile  
 
 
PostPosted: 12 Nov 2018 
Хиппей (support team)
User avatar
Joined: 30 Jul 2007
Posts: 113573
Lоcаtion: Киев (Kyiv, UA)
Age: 46
Name: Andrey
Tango Down - 2012 - Identity Crisis [flacs]

ImageImage Image Image

mirror: Uloz l Drop l M-Cloud l Narod

Группа заиграла уже более взрослый Hard Rock но всё с таким же громким и типа тяжёлым саундом.
Но явно они мне уже надоели и несмотря на почти все хитовые вещи, альбом прошёл 3-5 раз фон и почти ничем не запомнился.
Возможно, я просто обожрался и обслушался за пару дней такой музыкой.
А впереди ведь ещё два релиза :cry:

7/10

log
Image Image Image

Image Image Image

Exact Audio Copy V1.0 beta 3 from 29. August 2011

Отчёт EAC об извлечении, выполненном 12. ноября 2012, 19:37

Tango Down / Identity Crisis

Дисковод: HL-DT-STDVDRAM GH24NS50 Adapter: 3 ID: 1

Режим чтения : Достоверность
Использование точного потока : Да
Отключение кэша аудио : Да
Использование указателей C2 : Нет

Коррекция смещения при чтении : 667
Способность читать области Lead-in и Lead-out : Нет
Заполнение пропущенных сэмплов тишиной : Да
Удаление блоков с тишиной в начале и конце : Нет
При вычислениях CRC использовались нулевые сэмплы : Да
Интерфейс : Встроенный Win32-интерфейс для Win NT/2000
Обработка зазоров : Добавлено к предыдущему треку

Выходной формат : Пользовательский кодировщик
Выбранный битрейт : 896 kBit/s
Качество : Высокий
Добавление ID3-тега : Нет
Утилита сжатия : C:\Users\Alex\Desktop\EAC_1.0_beta_3_Portable_Multilingual\App\EAC\FLAC\flac.exe
Дополнительные параметры : -6 -V -T "ARTIST=%artist%" -T "TITLE=%title%" -T "ALBUM=%albumtitle%" -T "DATE=%year%" -T "TRACKNUMBER=%tracknr%" -T "GENRE=%genre%" -T "COMMENT=%comment%" %hascover%--picture="%coverfile%"%hascover% %source% -o %dest%


TOC извлечённого CD

Трек | Старт | Длительность | Начальный сектор | Конечный сектор
---------------------------------------------------------------------
1 | 0:00.00 | 3:23.72 | 0 | 15296
2 | 3:23.72 | 3:41.23 | 15297 | 31894
3 | 7:05.20 | 4:29.71 | 31895 | 52140
4 | 11:35.16 | 3:24.37 | 52141 | 67477
5 | 14:59.53 | 3:52.48 | 67478 | 84925
6 | 18:52.26 | 3:31.08 | 84926 | 100758
7 | 22:23.34 | 3:44.54 | 100759 | 117612
8 | 26:08.13 | 3:51.70 | 117613 | 135007
9 | 30:00.08 | 3:18.32 | 135008 | 149889
10 | 33:18.40 | 5:08.42 | 149890 | 173031


Трек 1

Имя файла C:\Users\Alex\Desktop\РИП\01. Cryin' To Me.wav

Длина предзазора 0:00:02.00

Пиковый уровень 98.8 %
Скорость извлечения 1.1 X
Качество трека 100.0 %
CRC теста 09AD30F3
CRC копии 09AD30F3
Копирование... OK

Трек 2

Имя файла C:\Users\Alex\Desktop\РИП\02. Alone.wav

Длина предзазора 0:00:02.00

Пиковый уровень 98.8 %
Скорость извлечения 1.2 X
Качество трека 100.0 %
CRC теста AC0C705F
CRC копии AC0C705F
Копирование... OK

Трек 3

Имя файла C:\Users\Alex\Desktop\РИП\03. Dream Child.wav

Длина предзазора 0:00:02.00

Пиковый уровень 98.8 %
Скорость извлечения 1.3 X
Качество трека 100.0 %
CRC теста 7347486D
CRC копии 7347486D
Копирование... OK

Трек 4

Имя файла C:\Users\Alex\Desktop\РИП\04. Blame.wav

Длина предзазора 0:00:02.00

Пиковый уровень 98.8 %
Скорость извлечения 1.2 X
Качество трека 99.9 %
CRC теста B142570C
CRC копии B142570C
Копирование... OK

Трек 5

Имя файла C:\Users\Alex\Desktop\РИП\05. Corners Of My Mind.wav

Длина предзазора 0:00:02.00

Пиковый уровень 98.8 %
Скорость извлечения 1.5 X
Качество трека 100.0 %
CRC теста 60B99935
CRC копии 60B99935
Копирование... OK

Трек 6

Имя файла C:\Users\Alex\Desktop\РИП\06. Enlighten Me.wav

Длина предзазора 0:00:02.00

Пиковый уровень 98.8 %
Скорость извлечения 1.5 X
Качество трека 100.0 %
CRC теста 014832EB
CRC копии 014832EB
Копирование... OK

Трек 7

Имя файла C:\Users\Alex\Desktop\РИП\07. Back To Life.wav

Длина предзазора 0:00:02.00

Пиковый уровень 98.8 %
Скорость извлечения 1.6 X
Качество трека 100.0 %
CRC теста 90A4091E
CRC копии 90A4091E
Копирование... OK

Трек 8

Имя файла C:\Users\Alex\Desktop\РИП\08. Hearts Catch Fire.wav

Длина предзазора 0:00:02.00

Пиковый уровень 98.8 %
Скорость извлечения 1.7 X
Качество трека 100.0 %
CRC теста C99692D3
CRC копии C99692D3
Копирование... OK

Трек 9

Имя файла C:\Users\Alex\Desktop\РИП\09. Calling Out.wav

Длина предзазора 0:00:02.00

Пиковый уровень 98.8 %
Скорость извлечения 1.7 X
Качество трека 100.0 %
CRC теста 5D78D8C9
CRC копии 5D78D8C9
Копирование... OK

Трек 10

Имя файла C:\Users\Alex\Desktop\РИП\10. Magic Pudding.wav

Длина предзазора 0:00:02.00

Пиковый уровень 98.8 %
Скорость извлечения 2.0 X
Качество трека 100.0 %
CRC теста C9399384
CRC копии C9399384
Копирование... OK

Ошибок не произошло

Конец отчёта

==== Контрольная сумма отчёта 1CB458199B98B6DF5C7A4F419AF76141CA9C14C6F0DFB0B49204E2A564EB3787 ====

cue
REM GENRE "Hard Rock"
REM DATE 2012
REM DISCID 6609030A
REM COMMENT "ExactAudioCopy v1.0b3"
PERFORMER "Tango Down"
TITLE "Identity Crisis"
FILE "01. Cryin' To Me.wav" WAVE
TRACK 01 AUDIO
TITLE "Cryin' To Me"
PERFORMER "Tango Down"
INDEX 01 00:00:00
TRACK 02 AUDIO
TITLE "Alone"
PERFORMER "Tango Down"
INDEX 00 03:21:72
FILE "02. Alone.wav" WAVE
INDEX 01 00:00:00
TRACK 03 AUDIO
TITLE "Dream Child"
PERFORMER "Tango Down"
INDEX 00 03:39:23
FILE "03. Dream Child.wav" WAVE
INDEX 01 00:00:00
TRACK 04 AUDIO
TITLE "Blame"
PERFORMER "Tango Down"
INDEX 00 04:27:71
FILE "04. Blame.wav" WAVE
INDEX 01 00:00:00
TRACK 05 AUDIO
TITLE "Corners Of My Mind"
PERFORMER "Tango Down"
INDEX 00 03:22:37
FILE "05. Corners Of My Mind.wav" WAVE
INDEX 01 00:00:00
TRACK 06 AUDIO
TITLE "Enlighten Me"
PERFORMER "Tango Down"
INDEX 00 03:50:48
FILE "06. Enlighten Me.wav" WAVE
INDEX 01 00:00:00
TRACK 07 AUDIO
TITLE "Back To Life"
PERFORMER "Tango Down"
INDEX 00 03:29:08
FILE "07. Back To Life.wav" WAVE
INDEX 01 00:00:00
TRACK 08 AUDIO
TITLE "Hearts Catch Fire"
PERFORMER "Tango Down"
INDEX 00 03:42:54
FILE "08. Hearts Catch Fire.wav" WAVE
INDEX 01 00:00:00
TRACK 09 AUDIO
TITLE "Calling Out"
PERFORMER "Tango Down"
INDEX 00 03:49:70
FILE "09. Calling Out.wav" WAVE
INDEX 01 00:00:00
TRACK 10 AUDIO
TITLE "Magic Pudding"
PERFORMER "Tango Down"
INDEX 00 03:16:32
FILE "10. Magic Pudding.wav" WAVE
INDEX 01 00:00:00

_________________


Top
 Profile E-mail  
 
 
PostPosted: 12 Nov 2018 
Хиппей (support team)
User avatar
Joined: 30 Jul 2007
Posts: 113573
Lоcаtion: Киев (Kyiv, UA)
Age: 46
Name: Andrey
Песня хит, это песня из топ 10. Я не мониторю, была ли в топе синглов та или иная вещь, да и не особо они мне нравятся. В альбомах встречаются яркие вещи, с хорошей мелодией или вокальным выпендрежем или чем либо ещё. На трэше такая песня одна, остальное однообразное америкосовское коммерческое кака. В те времена бон джови в схожей стилистике и с тем же соавтором делали куда более привлекательные песни. Слушал его после альбома 87 года, обплевался и до сих пор не перевариваю эту шляпу, кассу взаимопомощи поиздержавшегося старину Купера

Едрить, Коля, назови, плиз, мне любые 5 -10 песен, которые, по-твоему вкусу и мнению, являются хитами.
Любой группы или исполнителя, оставь, плиз, в покое Купера.

_________________


Top
 Profile E-mail  
 
 
PostPosted: 12 Nov 2018 
семерых одним ударом
Joined: 18 Aug 2007
Posts: 4154
Lоcаtion: Владивосток
Age: 44
Name: Николай Николаевич
Докажи


Top
 Profile  
 
 
PostPosted: 12 Nov 2018 
семерых одним ударом
Joined: 18 Aug 2007
Posts: 4154
Lоcаtion: Владивосток
Age: 44
Name: Николай Николаевич
Для меня красивые вещи напр из сегодня заслушанного riot: wings of fire (классно сделана вокальная мелодия в припеве, не нужны никакие вшивые подпевки) и running from the law, оттуда же


Top
 Profile  
 
 
PostPosted: 12 Nov 2018 
Хиппей (support team)
User avatar
Joined: 30 Jul 2007
Posts: 113573
Lоcаtion: Киев (Kyiv, UA)
Age: 46
Name: Andrey
Докажи

Шо именно?

_________________


Top
 Profile E-mail  
 
 
PostPosted: 12 Nov 2018 
Хиппей (support team)
User avatar
Joined: 30 Jul 2007
Posts: 113573
Lоcаtion: Киев (Kyiv, UA)
Age: 46
Name: Andrey
aziel wrote:
Для меня красивые вещи напр из

А я тебя спросил о хитах, а не о красивых сиськах вещах :lloo:

Или ты считаешь эти две песни названные тобой хитами?

_________________


Top
 Profile E-mail  
 
 
PostPosted: 12 Nov 2018 
семерых одним ударом
Joined: 18 Aug 2007
Posts: 4154
Lоcаtion: Владивосток
Age: 44
Name: Николай Николаевич
Шо именно? То, что ты успел отредактировать и сейчас не видно на что именно был ответ. Я не понимаю что в твоём случае считается хитами, тк это явно песни не из топа и часто для меня проходняк. Что это по факту, писал выше. Соотв если применять терминологию корректно, это не хиты. Это просто песни из того перечня, что лично я считаю золотым фондом сцены. Такой ответ устроит?


Top
 Profile  
 
 
PostPosted: 12 Nov 2018 
Хиппей (support team)
User avatar
Joined: 30 Jul 2007
Posts: 113573
Lоcаtion: Киев (Kyiv, UA)
Age: 46
Name: Andrey
aziel wrote:
Шо именно? То, что ты успел отредактировать и сейчас не видно на что именно был ответ.

Ничо я кроме очепяток у себя не редактирую, ты задолбал своим смартом сюда строчить одним абзацем, не использую цитаты, и теперь типа сам запутался и других путаешь.
aziel wrote:
Я не понимаю что в твоём случае считается хитами, тк это явно песни не из топа и часто для меня проходняк. Что это по факту, писал выше. Соотв если применять терминологию корректно, это не хиты. Это просто песни из того перечня, что лично я считаю золотым фондом сцены. Такой ответ устроит?

Нет. Я тебе вообще теперь не понял.
Ты можешь назвать штук 5 любых хитовых песен? Любой группы, любого стиля?

_________________


Top
 Profile E-mail  
 
 
PostPosted: 12 Nov 2018 
Хиппей (support team)
User avatar
Joined: 30 Jul 2007
Posts: 113573
Lоcаtion: Киев (Kyiv, UA)
Age: 46
Name: Andrey
Tango Down - 2014 - Charming Devil [flac]

Image Image Image

mirror: Uloz l Drop l Narod l M-Cloud

Группа заиграла уже более взрослый Hard Rock но всё с таким же громким и типа тяжёлым, но мелодичным саундом.
Но явно они мне уже надоели и несмотря на почти все хитовые вещи, альбом прошёл 3-5 раз фон и почти ничем не запомнился.
Возможно, я просто обожрался и обслушался за пару дней такой музыкой.
А впереди ведь ещё минимум полноформатник :cry:

7/10

Image Image Image Image Image

log
Exact Audio Copy V1.0 beta 3 from 29. August 2011

EAC extraction logfile from 10. October 2014, 21:51

Tango Down / Charming Devil (888295146913)

Used drive : PLEXTOR DVDR PX-860A Adapter: 4 ID: 0

Read mode : Secure
Utilize accurate stream : Yes
Defeat audio cache : Yes
Make use of C2 pointers : No

Read offset correction : 96
Overread into Lead-In and Lead-Out : No
Fill up missing offset samples with silence : Yes
Delete leading and trailing silent blocks : No
Null samples used in CRC calculations : Yes
Used interface : Installed external ASPI interface

Used output format : User Defined Encoder
Selected bitrate : 128 kBit/s
Quality : High
Add ID3 tag : Yes
Command line compressor : G:\Program Files (x86)\Exact Audio Copy\Flac\flac.exe
Additional command line options : -V -8 -T "Date=%year%" -T "Genre=%genre%" %source%


TOC of the extracted CD

Track | Start | Length | Start sector | End sector
---------------------------------------------------------
1 | 0:00.00 | 3:47.35 | 0 | 17059
2 | 3:47.35 | 4:11.71 | 17060 | 35955
3 | 7:59.31 | 3:19.40 | 35956 | 50920
4 | 11:18.71 | 3:49.02 | 50921 | 68097
5 | 15:07.73 | 4:09.04 | 68098 | 86776
6 | 19:17.02 | 4:07.42 | 86777 | 105343
7 | 23:24.44 | 3:36.21 | 105344 | 121564
8 | 27:00.65 | 4:04.16 | 121565 | 139880
9 | 31:05.06 | 4:19.10 | 139881 | 159315
10 | 35:24.16 | 4:57.45 | 159316 | 181635


Range status and errors

Selected range

Filename D:\MUSIC\Tango Down - Charming Devil (888295146913).wav

Peak level 99.7 %
Extraction speed 7.1 X
Range quality 100.0 %
Test CRC B823D3FE
Copy CRC B823D3FE
Copy OK

No errors occurred


AccurateRip summary

Track 1 not present in database
Track 2 not present in database
Track 3 not present in database
Track 4 not present in database
Track 5 not present in database
Track 6 not present in database
Track 7 not present in database
Track 8 not present in database
Track 9 not present in database
Track 10 not present in database

None of the tracks are present in the AccurateRip database

End of status report

==== Log checksum C86B09993E666CFF6CBFB8639E2C06A88B82C1548EED919E4A90F8EC2D3BA057 ====

cue
REM GENRE Hard Rock
REM DATE 2014
REM DISCID 8309750A
REM COMMENT ExactAudioCopy v1.0b3
PERFORMER "Tango Down"
TITLE "Charming Devil (888295146913)"
FILE "Tango Down - Charming Devil (888295146913).flac" WAVE
TRACK 01 AUDIO
TITLE " Bad Reputation"
INDEX 01 00:00:00
TRACK 02 AUDIO
TITLE " Charming Devil"
INDEX 00 03:45:35
INDEX 01 03:47:35
TRACK 03 AUDIO
TITLE " Tunnel Vision"
INDEX 00 07:57:31
INDEX 01 07:59:31
TRACK 04 AUDIO
TITLE " Too Many Roads"
INDEX 00 11:16:71
INDEX 01 11:18:71
TRACK 05 AUDIO
TITLE " Change My World"
INDEX 00 15:05:73
INDEX 01 15:07:73
TRACK 06 AUDIO
TITLE " Heaven’s Falling"
INDEX 00 19:15:07
INDEX 01 19:17:02
TRACK 07 AUDIO
TITLE " New Addiction"
INDEX 00 23:22:49
INDEX 01 23:24:44
TRACK 08 AUDIO
TITLE " Tomorrow Never Comes"
INDEX 00 26:58:65
INDEX 01 27:00:65
TRACK 09 AUDIO
TITLE " I’m Done Loving You"
INDEX 00 31:03:06
INDEX 01 31:05:06
TRACK 10 AUDIO
TITLE " Nothing But Rain"
INDEX 00 35:22:16
INDEX 01 35:24:16

_________________


Top
 Profile E-mail  
 
 
PostPosted: 12 Nov 2018 
Я набрал 1000 сообщений!
Joined: 24 Oct 2009
Posts: 2233
Lоcаtion: Оренбург
Age: 55
Name: Юра
Саныч, повторяешься :blum:

_________________
:dash: I am happy!


Top
 Profile E-mail  
 
 
PostPosted: 12 Nov 2018 
Хиппей (support team)
User avatar
Joined: 30 Jul 2007
Posts: 113573
Lоcаtion: Киев (Kyiv, UA)
Age: 46
Name: Andrey
Tango Down - Bad Reputation



Вот ближайший пример с альбома 14 года, для меня это 100%-й хит :meloman:
А для тебя, Николай?
Даже если смотреть и слушать через айфон.

_________________


Top
 Profile E-mail  
 
 
PostPosted: 12 Nov 2018 
Хиппей (support team)
User avatar
Joined: 30 Jul 2007
Posts: 113573
Lоcаtion: Киев (Kyiv, UA)
Age: 46
Name: Andrey
Саныч, повторяешься :blum:

Я почти 1 в 1 скопировал свой отзыв, так как альбомы между собой почти не имеют отличий.

_________________


Top
 Profile E-mail  
 
 
PostPosted: 12 Nov 2018 
Хиппей (support team)
User avatar
Joined: 30 Jul 2007
Posts: 113573
Lоcаtion: Киев (Kyiv, UA)
Age: 46
Name: Andrey
Scatterbrain wrote:
Tango Down - 2014 - Charming Devil

Не-а, по ходу, этот альбом заслуживает особого внимания и всё же пролезет в топ личный. Ибо песни цепляют своей и хитовостью и свежестью исполнения :meloman: :meloman: :meloman:

9/10

Однозначно пока лучший альбом группы :true: :true: :true:

зы. Хотя мне первый нравится и особенно клавишные там. Эх..

_________________


Top
 Profile E-mail  
 
Display posts from previous:  Sort by  
Post new topic Reply to topic  [ 60 posts ]  Go to page Previous  1, 2, 3  Next

All times are UTC + 3 hours


Who is online

Users browsing this forum: No registered users and 2 guests


You cannot post new topics in this forum
You cannot reply to topics in this forum
You cannot edit your posts in this forum
You cannot delete your posts in this forum
You cannot post attachments in this forum

Search for:
Яндекс.Метрика
Powered by phpBB © 2000, 2002, 2005, 2007 phpBB Group