\m/ 80's metal \m/

Информационно-аналитический форум "80 см пыли" (In Search We Trust) "У нас никто никуда не спешит"
Me For You - http://me-4u.com
It is currently 23 Jul 2019

All times are UTC + 3 hours

Spoiler
Chat - temporary registration for foreign users (please leave your application here)







Post new topic Reply to topic  [ 16 posts ] 
Author Message
 
PostPosted: 19 Nov 2011 
хард н хэвщик (support team)
User avatar
Joined: 02 Jun 2008
Posts: 16881
Lоcаtion: Н.Новгород
Age: 32
Name: Артем
на одном диске со Стивом Планкеттом еще это:
HITTMAN 1989 Hittman
STEVE PLUNKETT 1991 My Attitude
TORME 1985 Back To Babylon
V/A HARD N' HEAVY RARITIES VOL.11 (RYCHUS SYN / FLIGHT CHARM / BUSTER BROWN) (BOOTLEG)
V/A HARD N' HEAVY RARITIES VOL.13 (HANDS OF MERCY / MANDRAKE GARDEN / ASHBURY)
VON GROOVE 1992 Von Groove
WAR BABIES 1992 War Babies
Z-LOT-Z 1992 Z-Lot-Z

что-нить нужно залить исчо? :oops:


Top
 Profile  
 
 
PostPosted: 19 Nov 2011 
хард н хэвщик (support team)
User avatar
Joined: 02 Jun 2008
Posts: 16881
Lоcаtion: Н.Новгород
Age: 32
Name: Артем
Quote:
что-нить нужно залить исчо? :oops:
а, быстро пробежался, всё есть на рутрекерах :bore:


Top
 Profile  
 
 
PostPosted: 19 Nov 2011 
Персональный статус
User avatar
Joined: 02 Jul 2009
Posts: 299
Name: Александр
Артём , TORME 1985 Back To Babylon на рутрекере нет .


Top
 Profile E-mail  
 
 
PostPosted: 19 Nov 2011 
хард н хэвщик (support team)
User avatar
Joined: 02 Jun 2008
Posts: 16881
Lоcаtion: Н.Новгород
Age: 32
Name: Артем
Deris wrote:
Артём , TORME 1985 Back To Babylon на рутрекере нет .

torme 1985 back to babylon.rar


Top
 Profile  
 
 
PostPosted: 19 Nov 2011 
Хиппей (support team)
User avatar
Joined: 30 Jul 2007
Posts: 113628
Lоcаtion: Киев (Kyiv, UA)
Age: 46
Name: Andrey
:thanx:

_________________


Top
 Profile E-mail  
 
 
PostPosted: 20 Nov 2011 
Персональный статус
User avatar
Joined: 02 Jul 2009
Posts: 299
Name: Александр
Спасибо большое !!! :thanx:


Top
 Profile E-mail  
 
 
PostPosted: 25 Nov 2011 
А может смените мне статус?..
User avatar
Joined: 30 Aug 2009
Posts: 824
Lоcаtion: Ачинск, Красноярский край
Age: 33
Name: Стас
:thanx:


Top
 Profile E-mail  
 
 
PostPosted: 21 Mar 2014 
Хиппей (support team)
User avatar
Joined: 30 Jul 2007
Posts: 113628
Lоcаtion: Киев (Kyiv, UA)
Age: 46
Name: Andrey
Альбом этот кто-то успел послушать?
А то только сейчас подобрался к нему, сделал нормальный рип с образа, начал слушать и... дефекты есть в самом начале. Дальше еще не слушал :fingal:

Torme - 1985 - Back To Babylon [flac]

Image
Image

mirror: Narod l M-Cloud


log
Отчёт EAC об извлечении, выполненном 21. марта 2014, 15:13 для диска:
/

Дисковод: BWDK DMNWP2BGD2 Adapter: 3 ID: 0
Режим чтения: Скоростной
Коррекция смещения при чтении: 0
Способность читать области Lead-in и Lead-out : Нет

Выходной формат: Внутренние WAV-операции
44.100 Гц; 16 бит; стерео

Другие параметры:
Заполнение пропущенных сэмплов тишиной : Да
Удаление блоков с тишиной в начале и конце : Нет
Установленный внешний ASPI-интерфейс


Характеристики диапазона извлечения и сообщения об ошибках
Выбранный диапазон
Имя файла C:\Documents and Settings\klaus\Рабочий стол\CDImage.wav

Пиковый уровень 100.0 %
CRC 57B73688
Копирование... OK

Ошибок не произошло

Конец отчёта

cue
REM DISCID BC0B840D
REM COMMENT "ExactAudioCopy v0.95b4"
PERFORMER ""
TITLE ""
FILE "Torme - 1985 - Back To Babylon.wav" WAVE
TRACK 01 AUDIO
TITLE "Torme / All Around The World"
PERFORMER ""
INDEX 01 00:00:00
TRACK 02 AUDIO
TITLE "Torme / Star"
PERFORMER ""
INDEX 01 03:32:69
TRACK 03 AUDIO
TITLE "Torme / Eyes of the World"
PERFORMER ""
INDEX 01 08:13:39
TRACK 04 AUDIO
TITLE "Torme / Burning Bridges"
PERFORMER ""
INDEX 01 12:53:30
TRACK 05 AUDIO
TITLE "Torme / Hardcore"
PERFORMER ""
INDEX 01 15:12:24
TRACK 06 AUDIO
TITLE "Torme / Here I Go"
PERFORMER ""
INDEX 01 18:22:25
TRACK 07 AUDIO
TITLE "Torme / Family at War"
PERFORMER ""
INDEX 01 21:02:59
TRACK 08 AUDIO
TITLE "Torme / Front Line"
PERFORMER ""
INDEX 01 25:48:47
TRACK 09 AUDIO
TITLE "Torme / Arabia"
PERFORMER ""
INDEX 01 31:26:33
TRACK 10 AUDIO
TITLE "Torme / Mystery Train"
PERFORMER ""
INDEX 01 36:30:19
TRACK 11 AUDIO
TITLE "Torme / T.V.O.D."
PERFORMER ""
INDEX 01 42:26:62
TRACK 12 AUDIO
TITLE "Torme / Kerrap"
PERFORMER ""
INDEX 01 44:34:60
TRACK 13 AUDIO
TITLE "Torme / Love Guns & Money"
PERFORMER ""
INDEX 01 45:53:44


ps. Для "наглядности" перезалью сейчас и оригинальный нэро-файл.

mirror: M-Cloud l Narod

_________________


Top
 Profile E-mail  
 
 
PostPosted: 21 Mar 2014 
Хиппей (support team)
User avatar
Joined: 30 Jul 2007
Posts: 113628
Lоcаtion: Киев (Kyiv, UA)
Age: 46
Name: Andrey
Хм, сейчас слушаю альбом - без каких-либо дефектов звучит.
Очень качественный хард-рок с задорным приятным хрипловатым вокалом :dance:

_________________


Top
 Profile E-mail  
 
 
PostPosted: 21 Mar 2014 
спирт 100%
User avatar
Joined: 22 Sep 2008
Posts: 4447
Age: 48
Name: Саня
:thanx:


Top
 Profile  
 
 
PostPosted: 21 Mar 2014 
Я набрал 1000 сообщений!
Joined: 24 Oct 2009
Posts: 2233
Lоcаtion: Оренбург
Age: 55
Name: Юра
Спасибо!

_________________
:dash: I am happy!


Top
 Profile E-mail  
 
 
PostPosted: 22 Mar 2014 
Почётный металлург
User avatar
Joined: 15 Sep 2007
Posts: 4358
Lоcаtion: Хабаровск
Age: 59
Name: чуть выше
:thanx:

_________________
Коль будешь людей ты ослами честить,
тебе человеком меж них не прослыть!
(Саади, персидский поэт, 13в.)


Top
 Profile  
 
 
PostPosted: 22 Mar 2014 
ТрэшЭрос
User avatar
Joined: 18 Jul 2011
Posts: 2303
Lоcаtion: Гулькевичи
Age: 44
Name: Александр
:thanx:

phpBB [youtube]


Це?

_________________
Thrash no trash!!!


Top
 Profile E-mail  
 
 
PostPosted: 22 Mar 2014 
Хиппей (support team)
User avatar
Joined: 30 Jul 2007
Posts: 113628
Lоcаtion: Киев (Kyiv, UA)
Age: 46
Name: Andrey
Ja-ja :lloo:

_________________


Top
 Profile E-mail  
 
 
PostPosted: 22 Mar 2014 
ТрэшЭрос
User avatar
Joined: 18 Jul 2011
Posts: 2303
Lоcаtion: Гулькевичи
Age: 44
Name: Александр
Scatterbrain wrote:
хрипловатым вокалом

йа паверилл, а тама чота ниочиньто хрипла - с первага разу нифкурилле :umnik:

_________________
Thrash no trash!!!


Top
 Profile E-mail  
 
 
PostPosted: 22 Mar 2014 
Хиппей (support team)
User avatar
Joined: 30 Jul 2007
Posts: 113628
Lоcаtion: Киев (Kyiv, UA)
Age: 46
Name: Andrey
С первого разу он и не хрипит :lloo:

_________________


Top
 Profile E-mail  
 
Display posts from previous:  Sort by  
Post new topic Reply to topic  [ 16 posts ] 

All times are UTC + 3 hours


Who is online

Users browsing this forum: No registered users and 3 guests


You cannot post new topics in this forum
You cannot reply to topics in this forum
You cannot edit your posts in this forum
You cannot delete your posts in this forum
You cannot post attachments in this forum

Search for:
Яндекс.Метрика
Powered by phpBB © 2000, 2002, 2005, 2007 phpBB Group