\m/ 80's metal \m/

Информационно-аналитический форум "80 см пыли" (In Search We Trust) "У нас никто никуда не спешит"
Me For You - http://me-4u.com
It is currently 20 Sep 2019

All times are UTC + 3 hours

Spoiler
Chat - temporary registration for foreign users (please leave your application here)







Post new topic Reply to topic  [ 4 posts ] 
Author Message
 
PostPosted: 16 Sep 2011 
парень в очёчкXаX!
User avatar
Joined: 15 Aug 2007
Posts: 2353
Lоcаtion: UK'раина, г. ЛондАн Би-Би-Си
Age: 48
Name: Сергей
может ещё кому надА? --------------------------->в общем, для коллекционеров и тоЧЧка!
Image
Страна: Sweden
Стиль: Heavy Metal
Формат: WAV+CUE+LOG
Размер: 130mb+HQ scans (+Repair info)
Источник: My CDDA collection

Line-up:
Dan Dark - vocals
Claus Wildt - guitars
Chris J.First - guitars
Dan Gray - bass
Steve Streaker - drums

Tracklisting:
1. Beyond
2. Fire Raiser
3. Pain
4. Mercenary
5. Retribution

Total playing time: 16:57

Produced by Tomas Sunmo for Bali Productions
Recorded at Db Studios. Mixed at Studio Bastun

1982 Tandan Records
© 1990 Metal Blade Records


multiUp+HQ Scans
narod+HQ Scans
Image

log
Exact Audio Copy V1.0 beta 1 from 15. November 2010

Отчёт EAC об извлечении, выполненном 16. сентября 2011, 20:05

Torch / Fireraiser

Дисковод: TEAC CD-W524E Adapter: 1 ID: 0

Режим чтения : Достоверность
Использование точного потока : Да
Отключение кэша аудио : Да
Использование указателей C2 : Нет

Коррекция смещения при чтении : 686
Способность читать области Lead-in и Lead-out : Нет
Заполнение пропущенных сэмплов тишиной : Да
Удаление блоков с тишиной в начале и конце : Нет
При вычислениях CRC использовались нулевые сэмплы : Да
Интерфейс : Встроенный Win32-интерфейс для Win NT/2000

Выходной формат : Внутренние WAV-операции
Формат сэмплов : 44.100 Гц; 16 бит; стерео


TOC извлечённого CD

Трек | Старт | Длительность | Начальный сектор | Конечный сектор
---------------------------------------------------------------------
1 | 0:00.00 | 2:53.40 | 0 | 13014
2 | 2:53.40 | 2:20.45 | 13015 | 23559
3 | 5:14.10 | 4:01.00 | 23560 | 41634
4 | 9:15.10 | 3:06.50 | 41635 | 55634
5 | 12:21.60 | 4:33.65 | 55635 | 76174


Характеристики диапазона извлечения и сообщения об ошибках

Выбранный диапазон

Имя файла D:\Music\Сегодня+\CoverZ\UPLOADz\Torch 1982\Torch - Fireraiser.wav

Пиковый уровень 100.0 %
Скорость извлечения 0.6 X
Качество диапазона 100.0 %
CRC копии 896CC036
Копирование... OK

Ошибок не произошло


AccurateRip: сводка

Трек 1 отсутствует в базе данных
Трек 2 отсутствует в базе данных
Трек 3 отсутствует в базе данных
Трек 4 отсутствует в базе данных
Трек 5 отсутствует в базе данных

Ни одного трека нет в базе AccurateRip

Конец отчёта


cue
REM GENRE Metal
REM DATE 1982
REM DISCID 3803F705
REM COMMENT "ExactAudioCopy v1.0b1"
PERFORMER "Torch"
TITLE "Fireraiser"
FILE "Torch - Fireraiser.wav" WAVE
TRACK 01 AUDIO
TITLE "Beyond"
PERFORMER "Torch"
FLAGS DCP
INDEX 01 00:00:00
TRACK 02 AUDIO
TITLE "Fire Raiser"
PERFORMER "Torch"
FLAGS DCP
INDEX 01 02:53:40
TRACK 03 AUDIO
TITLE "Pain"
PERFORMER "Torch"
FLAGS DCP
INDEX 01 05:14:10
TRACK 04 AUDIO
TITLE "Mercenary"
PERFORMER "Torch"
FLAGS DCP
INDEX 01 09:15:10
TRACK 05 AUDIO
TITLE "Retribution"
PERFORMER "Torch"
FLAGS DCP
INDEX 01 12:21:60


spectrum
Attachment:
Tau (spectrum).jpg
Tau (spectrum).jpg [ 489.43 KiB | Viewed 127 times ]


Top
 Profile  
 
 
PostPosted: 17 Sep 2011 
Хиппей (support team)
User avatar
Joined: 30 Jul 2007
Posts: 114391
Lоcаtion: Киев (Kyiv, UA)
Age: 46
Name: Andrey
Серёг, спасибо :crazy: :thanx:

mirror: MultiUp l Narod

(лось + сканы)

Переношу пост в Бухту :pardon:

_________________


Top
 Profile E-mail  
 
 
PostPosted: 17 Sep 2011 
Хиппей (support team)
User avatar
Joined: 30 Jul 2007
Posts: 114391
Lоcаtion: Киев (Kyiv, UA)
Age: 46
Name: Andrey
Серёг, можешь в следующий раз всё в один архив пихать? :vic:
А то вряд ли ссылки проживут у тебя долго, а мне затем следить отдельно за лосем и за сканами не очень удобно...

_________________


Top
 Profile E-mail  
 
 
PostPosted: 17 Sep 2011 
Труъ
User avatar
Joined: 14 Jul 2009
Posts: 158
Lоcаtion: Hell Is Here
Age: 49
Name: Adriano
Many Thanx ! :thanx:


Top
 Profile E-mail  
 
Display posts from previous:  Sort by  
Post new topic Reply to topic  [ 4 posts ] 

All times are UTC + 3 hours


Who is online

Users browsing this forum: No registered users and 1 guest


You cannot post new topics in this forum
You cannot reply to topics in this forum
You cannot edit your posts in this forum
You cannot delete your posts in this forum
You cannot post attachments in this forum

Search for:
Яндекс.Метрика
Powered by phpBB © 2000, 2002, 2005, 2007 phpBB Group