\m/ 80's metal \m/

Информационно-аналитический форум "80 см пыли" (In Search We Trust) "У нас никто никуда не спешит"
Me For You - http://me-4u.com
It is currently 24 Aug 2019

All times are UTC + 3 hours

Spoiler
Chat - temporary registration for foreign users (please leave your application here)







Post new topic Reply to topic  [ 7 posts ] 
Author Message
 
PostPosted: 26 Jan 2011 
Генеральный thrasher
User avatar
Joined: 03 Oct 2008
Posts: 3717
Lоcаtion: Ханты-Мансийский АО
Age: 44
Name: Сергей
Image

Year:2002
Style:Thrash Metal/Crossover
Country:Brazil
Audio:Flac+Cue+Log+Covers
Size:269Mb
Source:my CD
Label:Alternative Tentacles

Line-Up:
Jao - guitar
Gordo - vocals
Boka - drums
Fralda - bass

Tracklist:
01 - Terror Declarado
02 - Engrenagem
03 - Playbaloser
04 - Proximo alvo
05 - O sistema me engoliu
06 - Medo
07 - Fragments of conquest
08 - Vai ficar preto
09 - Conspiracao Subliminar
10 - Rabia Social
11 - Necrochorume
12 - Problemao
13 - Cybergenocidio
14 - Onisciente Coletivo
15 - Deus e amor

Cue
REM DISCID DE08170E
REM COMMENT "ExactAudioCopy v0.99pb5"
PERFORMER "Ratos de Porбo"
TITLE "Onisciente Coletivo"
FILE "Ratos de Porбo - Onisciente Coletivo.flac" WAVE
TRACK 01 AUDIO
TITLE "Terror Declarado"
PERFORMER "Ratos de Porбo"
FLAGS DCP
INDEX 00 00:00:00
INDEX 01 00:00:01
TRACK 02 AUDIO
TITLE "Engrenagem"
PERFORMER "Ratos de Porбo"
FLAGS DCP
INDEX 01 02:45:37
TRACK 03 AUDIO
TITLE "Plabaloser"
PERFORMER "Ratos de Porбo"
FLAGS DCP
INDEX 01 06:02:73
TRACK 04 AUDIO
TITLE "Prуximo Alvo"
PERFORMER "Ratos de Porбo"
FLAGS DCP
INDEX 01 08:17:72
TRACK 05 AUDIO
TITLE "O Sistema me Engoliu"
PERFORMER "Ratos de Porбo"
FLAGS DCP
INDEX 01 11:06:41
TRACK 06 AUDIO
TITLE "Medo"
PERFORMER "Ratos de Porбo"
FLAGS DCP
INDEX 01 12:43:70
TRACK 07 AUDIO
TITLE "Fragments of Conquest"
PERFORMER "Ratos de Porбo"
FLAGS DCP
INDEX 01 14:39:69
TRACK 08 AUDIO
TITLE "Vai Ficar Preto"
PERFORMER "Ratos de Porбo"
FLAGS DCP
INDEX 01 17:56:38
TRACK 09 AUDIO
TITLE "Conspiracбo Subliminar"
PERFORMER "Ratos de Porбo"
FLAGS DCP
INDEX 01 19:05:05
TRACK 10 AUDIO
TITLE "Rabia Social"
PERFORMER "Ratos de Porбo"
FLAGS DCP
INDEX 01 21:27:65
TRACK 11 AUDIO
TITLE "Necrochorume"
PERFORMER "Ratos de Porбo"
FLAGS DCP
INDEX 01 23:45:51
TRACK 12 AUDIO
TITLE "Problemбo"
PERFORMER "Ratos de Porбo"
FLAGS DCP
INDEX 01 26:03:67
TRACK 13 AUDIO
TITLE "Cybergenocidio"
PERFORMER "Ratos de Porбo"
FLAGS DCP
INDEX 01 29:06:05
TRACK 14 AUDIO
TITLE "Onisciente Coletivo"
PERFORMER "Ratos de Porбo"
FLAGS DCP
INDEX 01 30:14:68


Log
Exact Audio Copy V0.99 prebeta 5 from 4. May 2009

Отчёт EAC об извлечении, выполненном 24. января 2011, 12:45

Ratos de Porбo / Onisciente Coletivo

Дисковод: TSSTcorpCDDVDW SH-S202N Adapter: 0 ID: 1

Режим чтения : Достоверность
Использование точного потока : Да
Отключение кэша аудио : Да
Использование указателей C2 : Нет

Коррекция смещения при чтении : 6
Способность читать области Lead-in и Lead-out : Нет
Заполнение пропущенных сэмплов тишиной : Да
Удаление блоков с тишиной в начале и конце : Нет
При вычислениях CRC использовались нулевые сэмплы : Да
Интерфейс : Встроенный Win32-интерфейс для Win NT/2000

Выходной формат : Пользовательский кодировщик
Выбранный битрейт : 768 kBit/s
Качество : Высокий
Добавление ID3-тэга : Нет
Утилита сжатия : C:\Program Files\Exact Audio Copy\FLAC\FLAC.EXE
Дополнительные параметры : -6 -V -T "ARTIST=%a" -T "TITLE=%t" -T "ALBUM=%g" -T "DATE=%y" -T "TRACKNUMBER=%n" -T "GENRE=%m" -T "COMMENT=%e" %s -o %d


TOC извлечённого CD

Трек | Старт | Длительность | Начальный сектор | Конечный сектор
---------------------------------------------------------------------
1 | 0:00.01 | 2:45.36 | 1 | 12411
2 | 2:45.37 | 3:17.36 | 12412 | 27222
3 | 6:02.73 | 2:14.74 | 27223 | 37346
4 | 8:17.72 | 2:48.44 | 37347 | 49990
5 | 11:06.41 | 1:37.29 | 49991 | 57294
6 | 12:43.70 | 1:55.74 | 57295 | 65993
7 | 14:39.69 | 3:16.44 | 65994 | 80737
8 | 17:56.38 | 1:08.42 | 80738 | 85879
9 | 19:05.05 | 2:22.60 | 85880 | 96589
10 | 21:27.65 | 2:17.61 | 96590 | 106925
11 | 23:45.51 | 2:18.16 | 106926 | 117291
12 | 26:03.67 | 3:02.13 | 117292 | 130954
13 | 29:06.05 | 1:08.63 | 130955 | 136117
14 | 30:14.68 | 4:16.59 | 136118 | 155376


Характеристики диапазона извлечения и сообщения об ошибках

Выбранный диапазон

Имя файла E:\Лоси\Ratos De Porao\Ratos de Porбo - Onisciente Coletivo.wav

Пиковый уровень 91.9 %
Качество диапазона 100.0 %
CRC копии D434A90B
Копирование... OK

Ошибок не произошло


AccurateRip: сводка

Трек 1 точное извлечение (доверие 1) [7824B8F6]
Трек 2 точное извлечение (доверие 1) [7E437AB7]
Трек 3 точное извлечение (доверие 1) [14CE83C8]
Трек 4 точное извлечение (доверие 1) [0665659D]
Трек 5 точное извлечение (доверие 1) [F4A6C3DA]
Трек 6 точное извлечение (доверие 1) [75A4FBB7]
Трек 7 точное извлечение (доверие 1) [EEA2856D]
Трек 8 точное извлечение (доверие 1) [D6EA76DF]
Трек 9 точное извлечение (доверие 1) [CDDB7E55]
Трек 10 точное извлечение (доверие 1) [41B4C859]
Трек 11 точное извлечение (доверие 1) [3D5E9694]
Трек 12 точное извлечение (доверие 1) [E6A025AF]
Трек 13 точное извлечение (доверие 1) [B160FB1B]
Трек 14 точное извлечение (доверие 1) [03F43FDC]

Все треки извлечены точно

Конец отчёта


Onisciente Coletivo


Top
 Profile  
 
 
PostPosted: 26 Jan 2011 
Хиппей (support team)
User avatar
Joined: 30 Jul 2007
Posts: 114073
Lоcаtion: Киев (Kyiv, UA)
Age: 46
Name: Andrey
:thanx:

_________________


Top
 Profile E-mail  
 
 
PostPosted: 26 Jan 2011 
Генеральный thrasher
User avatar
Joined: 03 Oct 2008
Posts: 3717
Lоcаtion: Ханты-Мансийский АО
Age: 44
Name: Сергей
Андрюх,ты ведь не качаешь! :nunu: Только благодаришь.Ребятки,а альбом то классный!Зря не берёте.... :losik:


Top
 Profile  
 
 
PostPosted: 26 Jan 2011 
Хиппей (support team)
User avatar
Joined: 30 Jul 2007
Posts: 114073
Lоcаtion: Киев (Kyiv, UA)
Age: 46
Name: Andrey
thorbeorn wrote:
не качаешь!

Пока нет, но ссылки аккуратно копирую и каждый день штук 20-30 файлов перебрасываю на сервак :oops:

_________________


Top
 Profile E-mail  
 
 
PostPosted: 26 Jan 2011 
Позитивный Южанин
User avatar
Joined: 07 May 2010
Posts: 1620
Lоcаtion: КРЫМ
Age: 44
Name: Алексей
:thanx:

_________________
WATER'EM ALL!


Top
 Profile E-mail  
 
 
PostPosted: 26 Jan 2011 
Работнечег
User avatar
Joined: 28 Aug 2007
Posts: 5954
Lоcаtion: г. Москва
Age: 30
Name: Дима
Как-то не люблю я их.. :oops: но в любом случае спасибо, может искачаю, потому что слушал мало и давно...


Top
 Profile E-mail  
 
 
PostPosted: 31 Jul 2011 
ТрэшЭрос
User avatar
Joined: 18 Jul 2011
Posts: 2304
Lоcаtion: Гулькевичи
Age: 44
Name: Александр
thorbeorn, спасибо! :thanx:

Качну для коллекции. Вроде местами нормально пацаны звучат... :true:

_________________
Thrash no trash!!!


Top
 Profile E-mail  
 
Display posts from previous:  Sort by  
Post new topic Reply to topic  [ 7 posts ] 

All times are UTC + 3 hours


Who is online

Users browsing this forum: No registered users and 1 guest


You cannot post new topics in this forum
You cannot reply to topics in this forum
You cannot edit your posts in this forum
You cannot delete your posts in this forum
You cannot post attachments in this forum

Search for:
Яндекс.Метрика
Powered by phpBB © 2000, 2002, 2005, 2007 phpBB Group