\m/ 80's metal \m/

Информационно-аналитический форум "80 см пыли" (In Search We Trust) "У нас никто никуда не спешит"
Me For You - http://me-4u.com
It is currently 21 Aug 2019

All times are UTC + 3 hours

Spoiler
Chat - temporary registration for foreign users (please leave your application here)







Post new topic Reply to topic  [ 50 posts ]  Go to page 1, 2, 3  Next
Author Message
 
PostPosted: 14 Jan 2011 
Работнечег
User avatar
Joined: 28 Aug 2007
Posts: 5935
Lоcаtion: г. Москва
Age: 30
Name: Дима
Image
Band: Reverend
Album: World Won't Miss You
Label: Virgin Japan LTD. (#VJCP-51)
Genre: Power/Thrash Metal
Country: USA
Format: Flac + Log + Cue/Covers
Size: 339 Mb

Line-Up:
David Wayne – lead vocals
Dennis O’Hara – bass
Brian Korban – guitar
Stuart Fuji – guitar
Rick Basha - drums


Tracklist:
1. Remission 04:29
2. Another Form of Greed 04:05
3. Scattered Wits 04:58
4. Desperate 05:04
5. Leader of Fools 03:44
6. World Won't Miss You 04:53
7. Rude Awakening 04:44
8. Gunpoint 04:23
9. Killing Time 04:31
10. 11th Hour 03:49
Total playing time 42:40

LOG
Exact Audio Copy V0.99 prebeta 5 from 4. May 2009

EAC extraction logfile from 13. January 2011, 15:03

Reverend / World Won't Miss You (Japan)

Used drive : PIONEER DVD-RW DVR-116D Adapter: 0 ID: 0

Read mode : Secure
Utilize accurate stream : Yes
Defeat audio cache : Yes
Make use of C2 pointers : No

Read offset correction : 96
Overread into Lead-In and Lead-Out : No
Fill up missing offset samples with silence : Yes
Delete leading and trailing silent blocks : No
Null samples used in CRC calculations : Yes
Used interface : Native Win32 interface for Win NT & 2000

Used output format : User Defined Encoder
Selected bitrate : 32 kBit/s
Quality : High
Add ID3 tag : No
Command line compressor : C:\Program Files\Exact Audio Copy\Flac\flac.exe
Additional command line options : -6 -V %s


TOC of the extracted CD

Track | Start | Length | Start sector | End sector
---------------------------------------------------------
1 | 0:00.37 | 4:28.57 | 37 | 20193
2 | 4:29.19 | 4:05.55 | 20194 | 38623
3 | 8:34.74 | 4:57.73 | 38624 | 60971
4 | 13:32.72 | 5:03.25 | 60972 | 83721
5 | 18:36.22 | 3:44.20 | 83722 | 100541
6 | 22:20.42 | 4:53.25 | 100542 | 122541
7 | 27:13.67 | 4:43.57 | 122542 | 143823
8 | 31:57.49 | 4:22.68 | 143824 | 163541
9 | 36:20.42 | 4:30.45 | 163542 | 183836
10 | 40:51.12 | 6:58.27 | 183837 | 215213
11 | 47:49.39 | 3:51.18 | 215214 | 232556


Range status and errors

Selected range

Filename D:\Музыка\Lossless\Reverend - World Won't Miss You (1990) (Japan)\Reverend - World Won't Miss You (Japan).wav

Peak level 100.0 %
Range quality 100.0 %
Copy CRC 505DA963
Copy OK

No errors occurred


AccurateRip summary

Track 1 not present in database
Track 2 not present in database
Track 3 not present in database
Track 4 not present in database
Track 5 not present in database
Track 6 not present in database
Track 7 not present in database
Track 8 not present in database
Track 9 not present in database
Track 10 not present in database
Track 11 not present in database

None of the tracks are present in the AccurateRip database

End of status report

CUE
REM GENRE "Power/Thrash Metal"
REM DATE 1990
REM DISCID 8A0C1C0B
REM COMMENT "ExactAudioCopy v0.99pb5"
PERFORMER "Reverend"
TITLE "World Won't Miss You (Japan)"
FILE "Reverend - World Won't Miss You (Japan).flac" WAVE
TRACK 01 AUDIO
TITLE "Remission"
PERFORMER "Reverend"
INDEX 00 00:00:00
INDEX 01 00:00:37
TRACK 02 AUDIO
TITLE "Another Form Of Greed"
PERFORMER "Reverend"
INDEX 00 04:26:58
INDEX 01 04:29:19
TRACK 03 AUDIO
TITLE "Scattered Wits"
PERFORMER "Reverend"
INDEX 00 08:31:33
INDEX 01 08:34:74
TRACK 04 AUDIO
TITLE "Desperate"
PERFORMER "Reverend"
INDEX 00 13:30:58
INDEX 01 13:32:72
TRACK 05 AUDIO
TITLE "Leader Of Fools"
PERFORMER "Reverend"
INDEX 00 18:31:03
INDEX 01 18:36:22
TRACK 06 AUDIO
TITLE "World Won't Miss You"
PERFORMER "Reverend"
INDEX 01 22:20:42
TRACK 07 AUDIO
TITLE "Rude Awakening"
PERFORMER "Reverend"
INDEX 00 27:11:13
INDEX 01 27:13:67
TRACK 08 AUDIO
TITLE "Gunpoint"
PERFORMER "Reverend"
INDEX 00 31:54:00
INDEX 01 31:57:49
TRACK 09 AUDIO
TITLE "Killing Time"
PERFORMER "Reverend"
INDEX 00 36:18:45
INDEX 01 36:20:42
TRACK 10 AUDIO
TITLE "Hand Of Doom"
PERFORMER "Reverend"
INDEX 00 40:47:05
INDEX 01 40:51:12
TRACK 11 AUDIO
TITLE "11th Hour"
PERFORMER "Reverend"
INDEX 00 47:48:08
INDEX 01 47:49:39

Spectrum
Image


Narod.Ru

Пока Олег далеко, спешу поделиться рипом с его диска :crazy:


Top
 Profile E-mail  
 
 
PostPosted: 14 Jan 2011 
А может смените мне статус?..
User avatar
Joined: 24 Dec 2008
Posts: 647
Age: 45
Name: Дмитрий
Спасибо!


Top
 Profile  
 
 
PostPosted: 25 Jan 2011 
Прокъмитолист
User avatar
Joined: 12 Aug 2007
Posts: 6590
Lоcаtion: Санктъ-Петербуркъ
Age: 51
Name: Олекъ
:true:

_________________
прокъметол - это музыко, от которово есть прок (ы)


Top
 Profile  
 
 
PostPosted: 25 Jan 2011 
Я набрал 1000 сообщений!
User avatar
Joined: 25 Dec 2008
Posts: 1545
Age: 43
Name: Павел
А cлучайно нет Олегова рип альбома "Play God"?


Top
 Profile  
 
 
PostPosted: 25 Jan 2011 
Хиппей (support team)
User avatar
Joined: 30 Jul 2007
Posts: 114011
Lоcаtion: Киев (Kyiv, UA)
Age: 46
Name: Andrey
:thanx:

mirror: iFolder l Narod l M-Cloud

_________________


Top
 Profile E-mail  
 
 
PostPosted: 25 Jan 2011 
Труъ
User avatar
Joined: 15 Dec 2008
Posts: 131
Lоcаtion: Донбасс
Age: 46
Name: Евгений
:thanx: Я и не заметил...Cпасибо, Диме и Олегу.


Top
 Profile  
 
 
PostPosted: 26 Jan 2011 
Прокъмитолист
User avatar
Joined: 12 Aug 2007
Posts: 6590
Lоcаtion: Санктъ-Петербуркъ
Age: 51
Name: Олекъ
hawkhunter wrote:
Play God

хм... Паш, на ММТ вроде ведь все есть... или с ними что-то не так?

_________________
прокъметол - это музыко, от которово есть прок (ы)


Top
 Profile  
 
 
PostPosted: 26 Jan 2011 
Я набрал 1000 сообщений!
User avatar
Joined: 25 Dec 2008
Posts: 1545
Age: 43
Name: Павел
Да вроде нормальный,только без сканов.


Top
 Profile  
 
 
PostPosted: 28 Jul 2011 
ТрэшЭрос
User avatar
Joined: 18 Jul 2011
Posts: 2304
Lоcаtion: Гулькевичи
Age: 44
Name: Александр
:thanx:
:true:

_________________
Thrash no trash!!!


Top
 Profile E-mail  
 
 
PostPosted: 12 Feb 2016 
Анатолий
User avatar
Joined: 18 Oct 2008
Posts: 3525
Lоcаtion: Армавир
Age: 42
Name: Анатолий
Коллеги, ни у кого случайно в запасниках нет второго полноформатника? Но не такого, какой лежит на рутрекере? И не переиздания от 2014 года.


Top
 Profile E-mail  
 
 
PostPosted: 13 Feb 2016 
Хиппей (support team)
User avatar
Joined: 30 Jul 2007
Posts: 114011
Lоcаtion: Киев (Kyiv, UA)
Age: 46
Name: Andrey
Толя, а что там не так?
На дебютнике качестве тоже так себе кефирчик :fingal:

_________________


Top
 Profile E-mail  
 
 
PostPosted: 13 Feb 2016 
Анатолий
User avatar
Joined: 18 Oct 2008
Posts: 3525
Lоcаtion: Армавир
Age: 42
Name: Анатолий
У меня болванка навернулась... не могу сделать с неё рип... ошибка... И она не такая как на рутрекере. Ты же знаешь меня... я вредный... хочу такое же что было... :cry:


Top
 Profile E-mail  
 
 
PostPosted: 13 Feb 2016 
ТрэшЭрос
User avatar
Joined: 18 Jul 2011
Posts: 2304
Lоcаtion: Гулькевичи
Age: 44
Name: Александр
У меня есть такой вот :vic:

Image Image

Нужен?

_________________
Thrash no trash!!!


Top
 Profile E-mail  
 
 
PostPosted: 13 Feb 2016 
Хиппей (support team)
User avatar
Joined: 30 Jul 2007
Posts: 114011
Lоcаtion: Киев (Kyiv, UA)
Age: 46
Name: Andrey
Privateer wrote:
Ты же знаешь меня... я вредный... хочу такое же что было... :cry:

Да помню. Но ведь и от лучшего не откажешься :crazy:

_________________


Top
 Profile E-mail  
 
 
PostPosted: 13 Feb 2016 
Анатолий
User avatar
Joined: 18 Oct 2008
Posts: 3525
Lоcаtion: Армавир
Age: 42
Name: Анатолий
MetallicAS

Сможешь проверить, с помощью EAC, такая же картина у тебя получится? По времени звучания не совсем то, что у меня...

Image

Scatterbrain wrote:
Да помню. Но ведь и от лучшего не откажешься


Похоже у меня был японец... :cry: :fingal:


Top
 Profile E-mail  
 
 
PostPosted: 13 Feb 2016 
ТрэшЭрос
User avatar
Joined: 18 Jul 2011
Posts: 2304
Lоcаtion: Гулькевичи
Age: 44
Name: Александр
Privateer, I have no these EAC... :oops:

_________________
Thrash no trash!!!


Top
 Profile E-mail  
 
 
PostPosted: 13 Feb 2016 
Хиппей (support team)
User avatar
Joined: 30 Jul 2007
Posts: 114011
Lоcаtion: Киев (Kyiv, UA)
Age: 46
Name: Andrey
Privateer wrote:
Похоже у меня был японец... :cry: :fingal:

И явно взятый у нас же ж от Димки.
Кхм, а темы нету по нему :fingal:

_________________


Top
 Profile E-mail  
 
 
PostPosted: 13 Feb 2016 
Хиппей (support team)
User avatar
Joined: 30 Jul 2007
Posts: 114011
Lоcаtion: Киев (Kyiv, UA)
Age: 46
Name: Andrey
church wrote:
Band: Reverend
Album: World Won't Miss You

Кстати, полностью в альбом я до сих пор так и не въехал... :pardon:

6/10

Баллада хороша, открывашка и вторая песня с конца. Остальное экспериментальное что-то такое, немного несуразное.

_________________


Top
 Profile E-mail  
 
 
PostPosted: 13 Feb 2016 
Анатолий
User avatar
Joined: 18 Oct 2008
Posts: 3525
Lоcаtion: Армавир
Age: 42
Name: Анатолий
MetallicAS wrote:
Privateer, I have no these EAC...


Упс... :fingal:

:arrow: viewtopic.php?f=209&t=1145

Scatterbrain wrote:
И явно взятый у нас же ж от Димки.


По моему он выкладывал только первый полноформатник.


Top
 Profile E-mail  
 
 
PostPosted: 13 Feb 2016 
ТрэшЭрос
User avatar
Joined: 18 Jul 2011
Posts: 2304
Lоcаtion: Гулькевичи
Age: 44
Name: Александр
Privateer wrote:
Упс...

Упс-2! В компе дискоглот не работает - "устал", да и цыда тож нема - у меня :losik:

Code:
Exact Audio Copy V0.99 prebeta 1 from 25. May 2007

EAC extraction logfile from 22. January 2009, 1:24

Reverend / Play God

Used drive  : _NEC    NR-7900A   Adapter: 1  ID: 0

Read mode               : Secure
Utilize accurate stream : Yes
Defeat audio cache      : Yes
Make use of C2 pointers : No

Read offset correction                      : 685
Overread into Lead-In and Lead-Out          : No
Fill up missing offset samples with silence : Yes
Delete leading and trailing silent blocks   : No
Used interface                              : Native Win32 interface for Win NT & 2000

Used output format : Internal WAV Routines
Sample format      : 44.100 Hz; 16 Bit; Stereo


TOC of the extracted CD

     Track |   Start  |  Length  | Start sector | End sector
    ---------------------------------------------------------
        1  |  0:00.00 |  3:57.32 |         0    |    17806   
        2  |  3:57.32 |  3:56.20 |     17807    |    35526   
        3  |  7:53.52 |  3:08.48 |     35527    |    49674   
        4  | 11:02.25 |  4:15.62 |     49675    |    68861   
        5  | 15:18.12 |  3:02.33 |     68862    |    82544   
        6  | 18:20.45 |  3:55.42 |     82545    |   100211   
        7  | 22:16.12 |  3:18.48 |    100212    |   115109   
        8  | 25:34.60 |  4:20.07 |    115110    |   134616   
        9  | 29:54.67 |  2:58.23 |    134617    |   147989   
       10  | 32:53.15 |  4:20.00 |    147990    |   167489   
       11  | 37:13.15 |  2:20.10 |    167490    |   177999   


Range status and errors

Selected range

     Filename D:\Torrent Закачки\Reverend  1991 Play God\Reverend - Play God.wav

     Peak level 100.0 %
     Range quality 99.9 %
     Copy CRC D63B1A2F
     Copy OK


AccurateRip summary

Track  1  not present in database
Track  2  not present in database
Track  3  not present in database
Track  4  not present in database
Track  5  not present in database
Track  6  not present in database
Track  7  not present in database
Track  8  not present in database
Track  9  not present in database
Track 10  not present in database
Track 11  not present in database

No errors occurred

End of status report

_________________
Thrash no trash!!!


Top
 Profile E-mail  
 
Display posts from previous:  Sort by  
Post new topic Reply to topic  [ 50 posts ]  Go to page 1, 2, 3  Next

All times are UTC + 3 hours


Who is online

Users browsing this forum: No registered users and 2 guests


You cannot post new topics in this forum
You cannot reply to topics in this forum
You cannot edit your posts in this forum
You cannot delete your posts in this forum
You cannot post attachments in this forum

Search for:
Яндекс.Метрика
cron
Powered by phpBB © 2000, 2002, 2005, 2007 phpBB Group