\m/ 80's metal \m/

Информационно-аналитический форум "80 см пыли" (In Search We Trust) "У нас никто никуда не спешит"
Железнодорожная биржа - RailAgent
It is currently 19 Feb 2018

All times are UTC + 3 hours

Spoiler
Chat - temporary registration for foreign users (please leave your application here)







Post new topic Reply to topic  [ 19 posts ] 
Author Message
 
PostPosted: 26 Oct 2010 
ыыыы
User avatar
Joined: 17 May 2009
Posts: 952
Lоcаtion: Пушкино, МО
Age: 39
Name: Дмитрий
Image


Жанр: Thrash/Speed Metal
Происхождение исполнителя: Германия
Год издания: 1989
Год издания данного носителя: 1989
Страна-производитель носителя: Япония
Аудио кодек: FLAC
Тип рипа: image+.cue
Битрейт аудио: lossless
Продолжительность: 37:56
Рип: Собственный
Лейбл: STEAMHAMMER/TEICHIKU
Каталоговый номер: TECP-25003
Матрица: TECP-25003 1 (SONY)

Треклист:
1. Monkey Business 03:06
2. Perfect Kill 03:46
3. Dead or Alive 03:07
4. The Secret of Our Destiny 04:28
5. Sicilian Showdown 03:33
6. Torture and Pain 03:37
7. Mindshock 02:51
8. Megalomania 04:12
9. Russian Nights 04:28
10. Skid Row 02:58
11. Epilogue 01:49

"Куй"
REM GENRE Metal
REM DATE 1989
REM DISCID 8308E40B
REM COMMENT "ExactAudioCopy v0.99pb5"
PERFORMER "Risk"
TITLE "Hell's Animals [TECP-25003]"
FILE "Risk - Hell's Animals [TECP-25003].flac" WAVE
TRACK 01 AUDIO
TITLE "Monkey Business"
PERFORMER "Risk"
INDEX 01 00:00:00
TRACK 02 AUDIO
TITLE "Perfect Kill"
PERFORMER "Risk"
INDEX 01 03:06:35
TRACK 03 AUDIO
TITLE "Dead or alive"
PERFORMER "Risk"
INDEX 01 06:52:62
TRACK 04 AUDIO
TITLE "The Secret of our Destiny"
PERFORMER "Risk"
INDEX 01 10:00:00
TRACK 05 AUDIO
TITLE "Sicilian Showdown"
PERFORMER "Risk"
INDEX 01 14:28:32
TRACK 06 AUDIO
TITLE "Torture and Pain"
PERFORMER "Risk"
INDEX 01 18:01:40
TRACK 07 AUDIO
TITLE "Mindshock"
PERFORMER "Risk"
INDEX 00 21:36:10
INDEX 01 21:38:05
TRACK 08 AUDIO
TITLE "Megalomania"
PERFORMER "Risk"
INDEX 01 24:29:35
TRACK 09 AUDIO
TITLE "Russian Nights"
PERFORMER "Risk"
INDEX 01 28:41:30
TRACK 10 AUDIO
TITLE "Skid Row"
PERFORMER "Risk"
INDEX 01 33:09:00
TRACK 11 AUDIO
TITLE "Epilogue"
PERFORMER "Risk"
INDEX 01 36:07:05


"Лог"
Exact Audio Copy V0.99 prebeta 5 from 4. May 2009

Отчёт EAC об извлечении, выполненном 15. октября 2010, 15:06

Risk / Hell's Animals [TECP-25003]

Дисковод: Optiarc DVD RW AD-7200A Adapter: 1 ID: 0

Режим чтения : Достоверность
Использование точного потока : Да
Отключение кэша аудио : Да
Использование указателей C2 : Нет

Коррекция смещения при чтении : 48
Способность читать области Lead-in и Lead-out : Нет
Заполнение пропущенных сэмплов тишиной : Да
Удаление блоков с тишиной в начале и конце : Нет
При вычислениях CRC использовались нулевые сэмплы : Да
Интерфейс : Встроенный Win32-интерфейс для Win NT/2000

Выходной формат : Пользовательский кодировщик
Выбранный битрейт : 128 kBit/s
Качество : Высокий
Добавление ID3-тэга : Нет
Утилита сжатия : C:\Program Files\Exact Audio Copy\Flac\flac.exe
Дополнительные параметры : -8 -V -T "artist=%a" -T "title=%t" -T "album=%g" -T "date=%y" -T "tracknumber=%n" -T "genre=%m" -T "comment=EAC


TOC извлечённого CD

Трек | Старт | Длительность | Начальный сектор | Конечный сектор
---------------------------------------------------------------------
1 | 0:00.00 | 3:06.35 | 0 | 13984
2 | 3:06.35 | 3:46.27 | 13985 | 30961
3 | 6:52.62 | 3:07.13 | 30962 | 44999
4 | 10:00.00 | 4:28.32 | 45000 | 65131
5 | 14:28.32 | 3:33.08 | 65132 | 81114
6 | 18:01.40 | 3:36.40 | 81115 | 97354
7 | 21:38.05 | 2:51.30 | 97355 | 110209
8 | 24:29.35 | 4:11.70 | 110210 | 129104
9 | 28:41.30 | 4:27.45 | 129105 | 149174
10 | 33:09.00 | 2:58.05 | 149175 | 162529
11 | 36:07.05 | 1:49.17 | 162530 | 170721


Характеристики диапазона извлечения и сообщения об ошибках

Выбранный диапазон

Имя файла Y:\Музыка\Risk\1989 Hell's Animals\Risk - Hell's Animals [TECP-25003].wav

Пиковый уровень 100.0 %
Качество диапазона 99.9 %
CRC копии F9907E04
Копирование... OK

Ошибок не произошло


AccurateRip: сводка

Трек 1 нет в базе данных
Трек 2 нет в базе данных
Трек 3 нет в базе данных
Трек 4 нет в базе данных
Трек 5 нет в базе данных
Трек 6 нет в базе данных
Трек 7 нет в базе данных
Трек 8 нет в базе данных
Трек 9 нет в базе данных
Трек 10 нет в базе данных
Трек 11 нет в базе данных

Ни одного трека нет в базе AccurateRip

Конец отчёта


Состав:
Vocals: Heinz Mikus
Guitars: Roman Keymer
Guitars: Thilo Hermann
Bass: Peter Dell
Drums: Jürgen Düsterloh

TECP-25003

_________________
Витасу до Даймонда как Алсу до Руссоса | При переразмещении - спрашивать разрешение!!


Top
 Profile  
 
 
PostPosted: 26 Oct 2010 
5cm
User avatar
Joined: 01 Mar 2009
Posts: 61
Name: Сергей
СПАСИБО !


Top
 Profile  
 
 
PostPosted: 26 Oct 2010 
Gretzky must die
User avatar
Joined: 16 Sep 2010
Posts: 260
Lоcаtion: Московская обл.
Name: Андрей
:true: :true: :true: :thanx: :thanx: :thanx:


Top
 Profile  
 
 
PostPosted: 26 Oct 2010 
Хиппей (support team)
User avatar
Joined: 30 Jul 2007
Posts: 100061
Lоcаtion: Киев (Kyiv, UA)
Age: 44
Name: Andrey
:thanx:

_________________


Top
 Profile E-mail  
 
 
PostPosted: 26 Oct 2010 
Позитивный Южанин
User avatar
Joined: 07 May 2010
Posts: 1620
Lоcаtion: КРЫМ
Age: 42
Name: Алексей
:true: :thanx: за очередной FUCKING CULT!

_________________
WATER'EM ALL!


Top
 Profile E-mail  
 
 
PostPosted: 26 Oct 2010 
А может смените мне статус?..
User avatar
Joined: 24 Dec 2008
Posts: 569
Age: 44
Name: Дмитрий
Спасибо, обновлю на японо-лося! :losik:


Top
 Profile  
 
 
PostPosted: 27 Oct 2010 
Работнечег
User avatar
Joined: 28 Aug 2007
Posts: 5128
Lоcаtion: г. Москва
Age: 28
Name: Дима
Спасибо за лося , Дим! Качать пока не буду, надеюсь куплю когда-нибудь :smile: У меня вот вопрос, а японские издания только этого альбома и Dirty Surfaces+Ratman выходили?


Top
 Profile E-mail  
 
 
PostPosted: 27 Oct 2010 
ыыыы
User avatar
Joined: 17 May 2009
Posts: 952
Lоcаtion: Пушкино, МО
Age: 39
Name: Дмитрий
а это какие издания??

_________________
Витасу до Даймонда как Алсу до Руссоса | При переразмещении - спрашивать разрешение!!


Top
 Profile  
 
 
PostPosted: 27 Oct 2010 
Работнечег
User avatar
Joined: 28 Aug 2007
Posts: 5128
Lоcаtion: г. Москва
Age: 28
Name: Дима
ну в смысле другие альбомы Риска на японцах выходили?


Top
 Profile E-mail  
 
 
PostPosted: 27 Oct 2010 
ыыыы
User avatar
Joined: 17 May 2009
Posts: 952
Lоcаtion: Пушкино, МО
Age: 39
Name: Дмитрий
ну да- Ежедневные новости ужасов. Следующий за этим

_________________
Витасу до Даймонда как Алсу до Руссоса | При переразмещении - спрашивать разрешение!!


Top
 Profile  
 
 
PostPosted: 27 Oct 2010 
Работнечег
User avatar
Joined: 28 Aug 2007
Posts: 5128
Lоcаtion: г. Москва
Age: 28
Name: Дима
Понятно, пасиб, будем искать)


Top
 Profile E-mail  
 
 
PostPosted: 26 Aug 2011 
Пионэръ
Joined: 25 Aug 2011
Posts: 48
Lоcаtion: Worl
Name: Zoltan Tivesko
Link down!


Top
 Profile E-mail  
 
 
PostPosted: 26 Aug 2011 
Хиппей (support team)
User avatar
Joined: 30 Jul 2007
Posts: 100061
Lоcаtion: Киев (Kyiv, UA)
Age: 44
Name: Andrey
Завтра попробую обновить.

_________________


Top
 Profile E-mail  
 
 
PostPosted: 26 Aug 2011 
Хиппей (support team)
User avatar
Joined: 30 Jul 2007
Posts: 100061
Lоcаtion: Киев (Kyiv, UA)
Age: 44
Name: Andrey
mirror: MultiUp l Narod

_________________


Top
 Profile E-mail  
 
 
PostPosted: 27 Aug 2011 
ТрэшЭрос
User avatar
Joined: 18 Jul 2011
Posts: 2296
Lоcаtion: Гулькевичи
Age: 43
Name: Александр
:thanx:

_________________
Thrash no trash!!!


Top
 Profile E-mail  
 
 
PostPosted: 27 Aug 2011 
Пионэръ
Joined: 25 Aug 2011
Posts: 48
Lоcаtion: Worl
Name: Zoltan Tivesko
:thanx:


Top
 Profile E-mail  
 
 
PostPosted: 10 Aug 2014 
5cm
User avatar
Joined: 12 Jun 2012
Posts: 74
Lоcаtion: Псков
Age: 48
Name: Сергей
Андрей ,если осталось ,обнови ,пожалуйста ,ещё раз !!! :vic:

_________________
надо,и на одной ноге выстоим!


Top
 Profile E-mail  
 
 
PostPosted: 10 Aug 2014 
5cm
User avatar
Joined: 12 Jun 2012
Posts: 74
Lоcаtion: Псков
Age: 48
Name: Сергей
Снята просьба ,на рутрекере сидов выпросил !!! :thanx:

_________________
надо,и на одной ноге выстоим!


Top
 Profile E-mail  
 
 
PostPosted: 09 Nov 2015 
консэрваторъ
Joined: 11 Aug 2007
Posts: 14770
Lоcаtion: Псков
Age: 43
Name: Сергей
:thanx: Народная ссыль жива...

_________________
THRASH 'EM ALL


Top
 Profile E-mail  
 
Display posts from previous:  Sort by  
Post new topic Reply to topic  [ 19 posts ] 

All times are UTC + 3 hours


Who is online

Users browsing this forum: No registered users and 1 guest


You cannot post new topics in this forum
You cannot reply to topics in this forum
You cannot edit your posts in this forum
You cannot delete your posts in this forum
You cannot post attachments in this forum

Search for:
Яндекс.Метрика
Powered by phpBB © 2000, 2002, 2005, 2007 phpBB Group