\m/ 80's metal \m/

Информационно-аналитический форум "80 см пыли" (In Search We Trust) "У нас никто никуда не спешит"
Me For You - http://me-4u.com
It is currently 25 Sep 2018

All times are UTC + 3 hours

Spoiler
Chat - temporary registration for foreign users (please leave your application here)







Post new topic Reply to topic  [ 4 posts ] 
Author Message
 
PostPosted: 25 Oct 2010 
Генеральный thrasher
User avatar
Joined: 03 Oct 2008
Posts: 3451
Lоcаtion: Ханты-Мансийский АО
Age: 43
Name: Сергей
Image
Year:1992
Style:Thrash/Crossover
Country:Brazil
Audio:Flac+Cue+Log+Covers
Size:373Mb
Label:Eldorado

Line-Up:
Gordo - vocals
Jao - Guitar
Jaba - Bass
Boka - Drums

Tracklist:
1. Morrer 01:17
2. Mad Society 03:21
3. Criancas Sem Futuro 01:55
4. Ascensao e Queda 01:51
5. Beber Ate Morrer 02:43
6. Maquina Militar 01:57
7. Guerrear 00:14
8. Politicos Em Nome do Povo... 00:19
9. Caos 00:18
10. Sofrer 03:17
11. Crucificados Pelo Sistema 00:48
12. Vida Animal 01:34
13. Plano Furado I 02:06
14. Plano Furado II 01:48
15. Anarkophobia 04:22
16. Aids, Pop, Repressao 01:36
17. Realidades da Guerra 00:51
18. Work For Never (Extreme Noise Terror cover) 01:37
19. Velhus Decreptus 02:02
20. Heranca 02:07
21. Paranoia Nuclear 01:01
22. Crise Geral 02:16
23. Que Vergonha (Olho Seco cover) 00:58
24. V.C.D.M.S.A. 00:42
25. Cйrebros Atomicos 02:03
26. Sentir Odio e Nada Mais 02:14
27. Igreja Universal 09:12

Cue
REM GENRE "Thrash Metal"
REM DATE 1992
REM DISCID 780CD81B
REM COMMENT "ExactAudioCopy v0.99pb4"
PERFORMER "Ratos De Porгo"
TITLE "Ao Vivo"
FILE "Ratos De Porгo - Ao Vivo.flac" WAVE
TRACK 01 AUDIO
TITLE "Morrer"
PERFORMER "Ratos De Porгo"
INDEX 01 00:00:00
TRACK 02 AUDIO
TITLE "Mad society"
PERFORMER "Ratos De Porгo"
INDEX 01 01:17:30
TRACK 03 AUDIO
TITLE "Crianзas sem futuro"
PERFORMER "Ratos De Porгo"
INDEX 01 04:39:00
TRACK 04 AUDIO
TITLE "Ascenзгo e queda"
PERFORMER "Ratos De Porгo"
INDEX 01 06:34:42
TRACK 05 AUDIO
TITLE "Beber atй morrer"
PERFORMER "Ratos De Porгo"
INDEX 01 08:26:39
TRACK 06 AUDIO
TITLE "Mбquina militar"
PERFORMER "Ratos De Porгo"
INDEX 01 11:10:51
TRACK 07 AUDIO
TITLE "Guerrear"
PERFORMER "Ratos De Porгo"
INDEX 01 13:08:30
TRACK 08 AUDIO
TITLE "Polнticos em nome do povo..."
PERFORMER "Ratos De Porгo"
INDEX 01 13:23:12
TRACK 09 AUDIO
TITLE "Caos"
PERFORMER "Ratos De Porгo"
INDEX 01 13:43:24
TRACK 10 AUDIO
TITLE "Sofrer"
PERFORMER "Ratos De Porгo"
INDEX 01 14:02:30
TRACK 11 AUDIO
TITLE "Crucificados pelo sistema"
PERFORMER "Ratos De Porгo"
INDEX 01 17:20:03
TRACK 12 AUDIO
TITLE "Vida animal"
PERFORMER "Ratos De Porгo"
INDEX 01 18:09:27
TRACK 13 AUDIO
TITLE "Plano furado I"
PERFORMER "Ratos De Porгo"
INDEX 01 19:43:51
TRACK 14 AUDIO
TITLE "Plano furado II"
PERFORMER "Ratos De Porгo"
INDEX 01 21:50:57
TRACK 15 AUDIO
TITLE "Anarkophobia"
PERFORMER "Ratos De Porгo"
INDEX 01 23:39:09
TRACK 16 AUDIO
TITLE "Aids, pop, repressгo"
PERFORMER "Ratos De Porгo"
INDEX 01 28:01:15
TRACK 17 AUDIO
TITLE "Realidades da guerra"
PERFORMER "Ratos De Porгo"
INDEX 01 29:37:51
TRACK 18 AUDIO
TITLE "Work for never"
PERFORMER "Ratos De Porгo"
INDEX 01 30:28:60
TRACK 19 AUDIO
TITLE "Velhus decreptus"
PERFORMER "Ratos De Porгo"
INDEX 01 32:06:54
TRACK 20 AUDIO
TITLE "Heranзa"
PERFORMER "Ratos De Porгo"
INDEX 01 34:08:57
TRACK 21 AUDIO
TITLE "Paranуia nuclear"
PERFORMER "Ratos De Porгo"
INDEX 01 36:16:42
TRACK 22 AUDIO
TITLE "Crise geral"
PERFORMER "Ratos De Porгo"
INDEX 01 37:18:09
TRACK 23 AUDIO
TITLE "Que vergonha"
PERFORMER "Ratos De Porгo"
INDEX 01 39:35:21
TRACK 24 AUDIO
TITLE "V.C.D.M.S.A."
PERFORMER "Ratos De Porгo"
INDEX 01 40:33:45
TRACK 25 AUDIO
TITLE "Cйrebros atфmicos"
PERFORMER "Ratos De Porгo"
INDEX 01 41:16:60
TRACK 26 AUDIO
TITLE "Sentir уdio e nada mais"
PERFORMER "Ratos De Porгo"
INDEX 01 43:21:00
TRACK 27 AUDIO
TITLE "Igreja Universal"
PERFORMER "Ratos De Porгo"
INDEX 01 45:36:00


Log
Exact Audio Copy V0.99 prebeta 4 from 23. January 2008

Отчёт EAC об извлечении, выполненном 25. октября 2010, 11:09

Ratos De Porгo / Ao Vivo

Дисковод: TSSTcorpCDDVDW SH-S202N Adapter: 0 ID: 1

Режим чтения : Достоверность
Использование точного потока : Да
Отключение кэша аудио : Да
Использование указателей C2 : Нет

Коррекция смещения при чтении : 6
Способность читать области Lead-in и Lead-out : Нет
Заполнение пропущенных сэмплов тишиной : Да
Удаление блоков с тишиной в начале и конце : Нет
При вычислениях CRC использовались нулевые сэмплы : Да
Интерфейс : Установленный внешний ASPI-интерфейс

Выходной формат : Пользовательский кодировщик
Выбранный битрейт : 768 kBit/s
Качество : Высокий
Добавление ID3-тэга : Нет
Утилита сжатия : C:\Program Files\Exact Audio Copy\FLAC\FLAC.EXE
Дополнительные параметры : -6 -V -T "ARTIST=%a" -T "TITLE=%t" -T "ALBUM=%g" -T "DATE=%y" -T "TRACKNUMBER=%n" -T "GENRE=%m" -T "COMMENT=%e" %s -o %d


TOC извлечённого CD

Трек | Старт | Длительность | Начальный сектор | Конечный сектор
---------------------------------------------------------------------
1 | 0:00.00 | 1:17.30 | 0 | 5804
2 | 1:17.30 | 3:21.45 | 5805 | 20924
3 | 4:39.00 | 1:55.42 | 20925 | 29591
4 | 6:34.42 | 1:51.72 | 29592 | 37988
5 | 8:26.39 | 2:44.12 | 37989 | 50300
6 | 11:10.51 | 1:57.54 | 50301 | 59129
7 | 13:08.30 | 0:14.57 | 59130 | 60236
8 | 13:23.12 | 0:20.12 | 60237 | 61748
9 | 13:43.24 | 0:19.06 | 61749 | 63179
10 | 14:02.30 | 3:17.48 | 63180 | 78002
11 | 17:20.03 | 0:49.24 | 78003 | 81701
12 | 18:09.27 | 1:34.24 | 81702 | 88775
13 | 19:43.51 | 2:07.06 | 88776 | 98306
14 | 21:50.57 | 1:48.27 | 98307 | 106433
15 | 23:39.09 | 4:22.06 | 106434 | 126089
16 | 28:01.15 | 1:36.36 | 126090 | 133325
17 | 29:37.51 | 0:51.09 | 133326 | 137159
18 | 30:28.60 | 1:37.69 | 137160 | 144503
19 | 32:06.54 | 2:02.03 | 144504 | 153656
20 | 34:08.57 | 2:07.60 | 153657 | 163241
21 | 36:16.42 | 1:01.42 | 163242 | 167858
22 | 37:18.09 | 2:17.12 | 167859 | 178145
23 | 39:35.21 | 0:58.24 | 178146 | 182519
24 | 40:33.45 | 0:43.15 | 182520 | 185759
25 | 41:16.60 | 2:04.15 | 185760 | 195074
26 | 43:21.00 | 2:15.00 | 195075 | 205199
27 | 45:36.00 | 9:12.72 | 205200 | 246671


Характеристики диапазона извлечения и сообщения об ошибках

Выбранный диапазон

Имя файла F:\Лоси\Ratos De Porao\Ratos De Porгo - Ao Vivo.wav

Пиковый уровень 93.3 %
Качество диапазона 100.0 %
CRC копии 7689EF50
Копирование... OK

Ошибок не произошло


AccurateRip: сводка

Трек 1 нет в базе данных
Трек 2 нет в базе данных
Трек 3 нет в базе данных
Трек 4 нет в базе данных
Трек 5 нет в базе данных
Трек 6 нет в базе данных
Трек 7 нет в базе данных
Трек 8 нет в базе данных
Трек 9 нет в базе данных
Трек 10 нет в базе данных
Трек 11 нет в базе данных
Трек 12 нет в базе данных
Трек 13 нет в базе данных
Трек 14 нет в базе данных
Трек 15 нет в базе данных
Трек 16 нет в базе данных
Трек 17 нет в базе данных
Трек 18 нет в базе данных
Трек 19 нет в базе данных
Трек 20 нет в базе данных
Трек 21 нет в базе данных
Трек 22 нет в базе данных
Трек 23 нет в базе данных
Трек 24 нет в базе данных
Трек 25 нет в базе данных
Трек 26 нет в базе данных
Трек 27 нет в базе данных

Ни одного трека нет в базе AccurateRip

Конец отчёта


Megaupload


Top
 Profile  
 
 
PostPosted: 25 Oct 2010 
дядя Миша
User avatar
Joined: 17 Oct 2008
Posts: 3057
Lоcаtion: USSR
Age: 56
Name: Khy
Спасибо , трешанём бывало!


Top
 Profile  
 
 
PostPosted: 24 Jul 2011 
ТрэшЭрос
User avatar
Joined: 18 Jul 2011
Posts: 2296
Lоcаtion: Гулькевичи
Age: 43
Name: Александр
:thanx: :true:

_________________
Thrash no trash!!!


Top
 Profile E-mail  
 
 
PostPosted: 24 Jul 2011 
Хиппей (support team)
User avatar
Joined: 30 Jul 2007
Posts: 106548
Lоcаtion: Киев (Kyiv, UA)
Age: 45
Name: Andrey
:thanx:
mirror: MultiUp l Narod

_________________


Top
 Profile E-mail  
 
Display posts from previous:  Sort by  
Post new topic Reply to topic  [ 4 posts ] 

All times are UTC + 3 hours


Who is online

Users browsing this forum: No registered users and 2 guests


You cannot post new topics in this forum
You cannot reply to topics in this forum
You cannot edit your posts in this forum
You cannot delete your posts in this forum
You cannot post attachments in this forum

Search for:
Яндекс.Метрика
Powered by phpBB © 2000, 2002, 2005, 2007 phpBB Group