\m/ 80's metal \m/

Информационно-аналитический форум "80 см пыли" (In Search We Trust) "У нас никто никуда не спешит"
Me For You - http://me-4u.com
It is currently 21 Aug 2019

All times are UTC + 3 hours

Spoiler
Chat - temporary registration for foreign users (please leave your application here)







Post new topic Reply to topic  [ 13 posts ] 
Author Message
 
PostPosted: 14 Oct 2010 
Генеральный thrasher
User avatar
Joined: 03 Oct 2008
Posts: 3717
Lоcаtion: Ханты-Мансийский АО
Age: 44
Name: Сергей
Image
Year:1995
Style:Thrash/Hardcore
Country:Brasil
Audio:Flac+Cue+Log+Covers
Size:211Mb
Label:Roadrunner Records

Line-Up:
Gordo - Vocals
Jao - Guitar
Pica-Pau- Bass
Boka- Drums

Tracklist:
1. Cancer (Hino Mortal) 01:41
2. Olho de Gato (Olho Seco) 00:59
3. Lobotomia (Lobotomia) 01:09
4. John Travolta (AI-5) 01:47
5. Nao Podemos Falar (R.D.P.) 00:35
6. Desemprego (Fogo Cruzado) 01:40
7. Capitalismo (Psychic Possessor) 01:25
8. A Bomba (R.D.P.) 00:13
9. Falsa Liberdade (Olho Seco) 01:05
10. To Tenso (Patife Band) 02:27
11. Buracos Suburbanos (Psykуze) 01:34
12. Corrupcao (R.D.P.) 01:01
13. Papai Noel (Garotos Podres) 01:29
14. Medo de Morrer (Inocentes) 01:08
15. O Dotadгo Deve Morrer (Cascavelletes) 02:31
16. Sу Pensa em Matar (R.D.P.) 01:27
17. Os Ratos (Anarkуlatras) 01:27
18. Classe Dominante (Restos de Nada) 01:27
19. Direito de Fumar (R.D.P.) 02:53
20. Nуs Somos A Turma (D.P.) 02:08

Cue
REM GENRE rock
REM DISCID F1076B13
REM COMMENT "ExactAudioCopy v0.99pb4"
PERFORMER "Ratos De Porao (Bra)"
TITLE "(1995) Feijoada Acidente? - Brasil"
FILE "Ratos De Porao (Bra) - (1995) Feijoada Acidente - Brasil.flac" WAVE
TRACK 01 AUDIO
TITLE "Cancer (Hino Mortal Cover)"
PERFORMER "Ratos De Porao (Bra)"
FLAGS DCP
INDEX 01 00:00:00
TRACK 02 AUDIO
TITLE "Olho De Gato (Olho Seco Cover)"
PERFORMER "Ratos De Porao (Bra)"
FLAGS DCP
INDEX 00 01:44:48
INDEX 01 01:46:45
TRACK 03 AUDIO
TITLE "Lobotomia (Lobotomia Cover)"
PERFORMER "Ratos De Porao (Bra)"
FLAGS DCP
INDEX 00 02:49:07
INDEX 01 02:51:07
TRACK 04 AUDIO
TITLE "John Travolta (AI-5 Cover)"
PERFORMER "Ratos De Porao (Bra)"
FLAGS DCP
INDEX 00 04:02:70
INDEX 01 04:04:67
TRACK 05 AUDIO
TITLE "N o Podemos Falar"
PERFORMER "Ratos De Porao (Bra)"
FLAGS DCP
INDEX 00 05:55:35
INDEX 01 05:57:32
TRACK 06 AUDIO
TITLE "Desemprego (Fogo Cruzado Cover)"
PERFORMER "Ratos De Porao (Bra)"
FLAGS DCP
INDEX 00 06:33:67
INDEX 01 06:35:67
TRACK 07 AUDIO
TITLE "Capitalismo (Psychic Possessor Cover)"
PERFORMER "Ratos De Porao (Bra)"
FLAGS DCP
INDEX 00 08:18:62
INDEX 01 08:20:62
TRACK 08 AUDIO
TITLE "A Bomba "
PERFORMER "Ratos De Porao (Bra)"
FLAGS DCP
INDEX 00 09:49:13
INDEX 01 09:51:12
TRACK 09 AUDIO
TITLE "Falsa Liberdade (Olho Seco Cover)"
PERFORMER "Ratos De Porao (Bra)"
FLAGS DCP
INDEX 00 10:07:07
INDEX 01 10:09:00
TRACK 10 AUDIO
TITLE "To Tenso (Patife Band Cover)"
PERFORMER "Ratos De Porao (Bra)"
FLAGS DCP
INDEX 00 11:17:40
INDEX 01 11:19:40
TRACK 11 AUDIO
TITLE "Buracos Suburbanos (Psykose Cover)"
PERFORMER "Ratos De Porao (Bra)"
FLAGS DCP
INDEX 00 13:48:30
INDEX 01 13:50:27
TRACK 12 AUDIO
TITLE "Corrupcao "
PERFORMER "Ratos De Porao (Bra)"
FLAGS DCP
INDEX 00 15:27:41
INDEX 01 15:29:40
TRACK 13 AUDIO
TITLE "Papai Noel (Garotos Podres Cover)"
PERFORMER "Ratos De Porao (Bra)"
FLAGS DCP
INDEX 00 16:33:35
INDEX 01 16:35:35
TRACK 14 AUDIO
TITLE "Medo De Morrer (Inocentes Cover)"
PERFORMER "Ratos De Porao (Bra)"
FLAGS DCP
INDEX 00 18:07:70
INDEX 01 18:09:70
TRACK 15 AUDIO
TITLE "O Dotadao Deve Morrer (Cascavelletes Cover)"
PERFORMER "Ratos De Porao (Bra)"
FLAGS DCP
INDEX 00 19:21:19
INDEX 01 19:23:15
TRACK 16 AUDIO
TITLE "So Pensa Em Matar "
PERFORMER "Ratos De Porao (Bra)"
FLAGS DCP
INDEX 00 21:57:45
INDEX 01 21:59:45
TRACK 17 AUDIO
TITLE "Os Ratos (Anarkolatras Cover)"
PERFORMER "Ratos De Porao (Bra)"
FLAGS DCP
INDEX 00 23:29:36
INDEX 01 23:31:35
TRACK 18 AUDIO
TITLE "Classe Dominante (Restos de Nada Cover)"
PERFORMER "Ratos De Porao (Bra)"
FLAGS DCP
INDEX 00 25:01:47
INDEX 01 25:03:47
TRACK 19 AUDIO
TITLE "Direito De Fumar"
PERFORMER "Ratos De Porao (Bra)"
FLAGS DCP
INDEX 00 26:33:61
INDEX 01 26:35:57

Log
Exact Audio Copy V0.99 prebeta 4 from 23. January 2008

Отчёт EAC об извлечении, выполненном 28. июля 2010, 20:52

Ratos De Porao (Bra) / (1995) Feijoada Acidente? - Brasil

Дисковод: TSSTcorpCDDVDW SH-S202N Adapter: 0 ID: 1

Режим чтения : Достоверность
Использование точного потока : Да
Отключение кэша аудио : Да
Использование указателей C2 : Нет

Коррекция смещения при чтении : 6
Способность читать области Lead-in и Lead-out : Нет
Заполнение пропущенных сэмплов тишиной : Да
Удаление блоков с тишиной в начале и конце : Нет
При вычислениях CRC использовались нулевые сэмплы : Да
Интерфейс : Установленный внешний ASPI-интерфейс

Выходной формат : Пользовательский кодировщик
Выбранный битрейт : 768 kBit/s
Качество : Высокий
Добавление ID3-тэга : Нет
Утилита сжатия : C:\Program Files\Exact Audio Copy\FLAC\FLAC.EXE
Дополнительные параметры : -6 -V -T "ARTIST=%a" -T "TITLE=%t" -T "ALBUM=%g" -T "DATE=%y" -T "TRACKNUMBER=%n" -T "GENRE=%m" -T "COMMENT=%e" %s -o %d


TOC извлечённого CD

Трек | Старт | Длительность | Начальный сектор | Конечный сектор
---------------------------------------------------------------------
1 | 0:00.00 | 1:46.45 | 0 | 7994
2 | 1:46.45 | 1:04.37 | 7995 | 12831
3 | 2:51.07 | 1:13.60 | 12832 | 18366
4 | 4:04.67 | 1:52.40 | 18367 | 26806
5 | 5:57.32 | 0:38.35 | 26807 | 29691
6 | 6:35.67 | 1:44.70 | 29692 | 37561
7 | 8:20.62 | 1:30.25 | 37562 | 44336
8 | 9:51.12 | 0:17.63 | 44337 | 45674
9 | 10:09.00 | 1:10.40 | 45675 | 50964
10 | 11:19.40 | 2:30.62 | 50965 | 62276
11 | 13:50.27 | 1:39.13 | 62277 | 69714
12 | 15:29.40 | 1:05.70 | 69715 | 74659
13 | 16:35.35 | 1:34.35 | 74660 | 81744
14 | 18:09.70 | 1:13.20 | 81745 | 87239
15 | 19:23.15 | 2:36.30 | 87240 | 98969
16 | 21:59.45 | 1:31.65 | 98970 | 105859
17 | 23:31.35 | 1:32.12 | 105860 | 112771
18 | 25:03.47 | 1:32.10 | 112772 | 119681
19 | 26:35.57 | 5:03.28 | 119682 | 142434


Характеристики диапазона извлечения и сообщения об ошибках

Выбранный диапазон

Имя файла D:\Lossless Music\Ratos De Porao (Bra) - (1995) Feijoada Acidente - Brasil.wav

Пиковый уровень 97.7 %
Качество диапазона 100.0 %
CRC копии 16EBD7B4
Копирование... OK

Ошибок не произошло


AccurateRip: сводка

Трек 1 нет в базе данных
Трек 2 нет в базе данных
Трек 3 нет в базе данных
Трек 4 нет в базе данных
Трек 5 нет в базе данных
Трек 6 нет в базе данных
Трек 7 нет в базе данных
Трек 8 нет в базе данных
Трек 9 нет в базе данных
Трек 10 нет в базе данных
Трек 11 нет в базе данных
Трек 12 нет в базе данных
Трек 13 нет в базе данных
Трек 14 нет в базе данных
Трек 15 нет в базе данных
Трек 16 нет в базе данных
Трек 17 нет в базе данных
Трек 18 нет в базе данных
Трек 19 нет в базе данных

Ни одного трека нет в базе AccurateRip

Конец отчёта


Megaupload

Угарный коротенький альбом ,составленный в основном из каверов бразильских панк-команд.Ну и несколько своих вещей имеется.Моя любимая вещь John Travolta.


Top
 Profile  
 
 
PostPosted: 14 Oct 2010 
Доктор энтомологии
User avatar
Joined: 22 Jan 2009
Posts: 9843
Lоcаtion: Даугавпилс
Age: 44
Name: Алексей
Спасибо большое за сытную обложку и за альбом замечательной группы :true: :true: :true: :thanx:


Top
 Profile  
 
 
PostPosted: 14 Oct 2010 
Позитивный Южанин
User avatar
Joined: 07 May 2010
Posts: 1620
Lоcаtion: КРЫМ
Age: 44
Name: Алексей
:true: :true: :true: :thanx: ФАКИНГ КУЛЬТ!!!

_________________
WATER'EM ALL!


Top
 Profile E-mail  
 
 
PostPosted: 14 Oct 2010 
дядя Миша
User avatar
Joined: 17 Oct 2008
Posts: 3166
Lоcаtion: USSR
Age: 56
Name: Khy
double cult!


Top
 Profile  
 
 
PostPosted: 14 Oct 2010 
Я набрал 1000 сообщений!
User avatar
Joined: 04 Jul 2009
Posts: 1344
Age: 46
Name: dima
Спасиб


Top
 Profile E-mail  
 
 
PostPosted: 02 Jun 2011 
Alive Again
User avatar
Joined: 17 Dec 2008
Posts: 4747
Lоcаtion: Курск Воронеж Оскол
Age: 45
Name: Дмитрий
Спасибо!


Top
 Profile E-mail  
 
 
PostPosted: 03 Jun 2011 
Генеральный thrasher
User avatar
Joined: 03 Oct 2008
Posts: 3717
Lоcаtion: Ханты-Мансийский АО
Age: 44
Name: Сергей
dr_rockter wrote:
Спасибо!


Димка,долго ты шёл до этого релиза!


Top
 Profile  
 
 
PostPosted: 03 Jun 2011 
Генеральный thrasher
User avatar
Joined: 03 Oct 2008
Posts: 3717
Lоcаtion: Ханты-Мансийский АО
Age: 44
Name: Сергей
Планирую взять винил первого альбома "Crucificados Pelo Sistema",ибо на CD не могу найти...Может и не выходил.Если всё будет норм,после отпуска сделаю лося. :losik:


Top
 Profile  
 
 
PostPosted: 03 Jun 2011 
Хиппей (support team)
User avatar
Joined: 30 Jul 2007
Posts: 114011
Lоcаtion: Киев (Kyiv, UA)
Age: 46
Name: Andrey
Серёга, спасибо! :thanx: :true:
Годом позже Slayer издал нечто подобное, только намного злее :true: :esel:

mirror: MultiUp l Narod

_________________


Top
 Profile E-mail  
 
 
PostPosted: 03 Jun 2011 
Генеральный thrasher
User avatar
Joined: 03 Oct 2008
Posts: 3717
Lоcаtion: Ханты-Мансийский АО
Age: 44
Name: Сергей
Scatterbrain wrote:
Серёга, спасибо! :thanx: :true:
Годом позже Slayer издал нечто подобное, только намного злее :true: :esel:



Согласен...Но всё же Убивцы,при всё моём уважении (мои любимые трэшеры),очень далеки от crossover-сцены.А Ратосы (то бишь Крысы) никогда не удалялись от андеграунда.И вообще,они весёлые раздолбаи...


Top
 Profile  
 
 
PostPosted: 03 Jun 2011 
Хиппей (support team)
User avatar
Joined: 30 Jul 2007
Posts: 114011
Lоcаtion: Киев (Kyiv, UA)
Age: 46
Name: Andrey
thorbeorn wrote:
очень далеки от crossover-сцены

Угу, но они прекрасно показали, как его нужно играть. Хотя многие этот альбом просто терпеть ненавидят, полагая, что диск нужно слушать с серьезным и трушным выражением лицо морды. А то типа отход от канонов жанра и прочее ля-ля-ля :yyy:
На самом деле это был прикол от Слауера :pardon:

_________________


Top
 Profile E-mail  
 
 
PostPosted: 11 Aug 2011 
Персональный статус
User avatar
Joined: 11 May 2011
Posts: 420
Lоcаtion: Omsk
Age: 29
Name: Alexander
Будем послушать. Спасибо, Сергей!

_________________
Enigma, unholy, ungodly, commander of the regeneration
Insidious and caught, implored by disgrace
Inhumation... The burial of man
Confession... Unify all evil


Top
 Profile E-mail  
 
 
PostPosted: 20 Aug 2011 
Alive Again
User avatar
Joined: 17 Dec 2008
Posts: 4747
Lоcаtion: Курск Воронеж Оскол
Age: 45
Name: Дмитрий
thorbeorn wrote:
dr_rockter wrote:
Спасибо!


Димка,долго ты шёл до этого релиза!


долго, года с 95-96 :crazy:


Top
 Profile E-mail  
 
Display posts from previous:  Sort by  
Post new topic Reply to topic  [ 13 posts ] 

All times are UTC + 3 hours


Who is online

Users browsing this forum: No registered users and 1 guest


You cannot post new topics in this forum
You cannot reply to topics in this forum
You cannot edit your posts in this forum
You cannot delete your posts in this forum
You cannot post attachments in this forum

Search for:
Яндекс.Метрика
cron
Powered by phpBB © 2000, 2002, 2005, 2007 phpBB Group