\m/ 80's metal \m/

Информационно-аналитический форум "80 см пыли" (In Search We Trust) "У нас никто никуда не спешит"
Железнодорожная биржа - RailAgent
It is currently 20 Jul 2018

All times are UTC + 3 hours

Spoiler
Chat - temporary registration for foreign users (please leave your application here)







Post new topic Reply to topic  [ 21 posts ]  Go to page Previous  1, 2
Author Message
 
PostPosted: 24 Sep 2010 
Работнечег
User avatar
Joined: 28 Aug 2007
Posts: 5383
Lоcаtion: г. Москва
Age: 29
Name: Дима
Image

Band: Risk
Album: Dirty Surfaces
Label: Teichiku Records
Genre: Speed/Thrash Metal
Country: Germany
Format: Flac + Log + Cue + Covers
Size: 476 Mb

Line-Up:
Heinz Mikus - Vocals (Faithful Breath)
Roman Keymer - Guitars (Angel Dust (Deu), Crows, Centaur (Deu))
Peter Dell - Bass (Faithful Breath)
Jürgen Düsterloh - Drums (Faithful Breath)
Thilo Hermann - Guitars (Faithful Breath, Grave Digger, Glenmore, Holy Moses (Deu), Running Wild, Höllenhunde)


Tracklist:
1. Beach Panic 01:36
2. Pyromaniac Man 03:42
3. Legend of the Kings 04:08
4. Warchild 06:41
5. Paralysed 05:02
6. Like a Roller-Coaster 05:11
7. Blood is Red 03:29
8. Letter From Beyond 06:37
9. Bury My Heart 06:58
10. Dirty Surfaces (bonus) 03:40
11. Iron Wheels (bonus) 03:39
Ratman 1989 (EP)
12. Ratman 10:37
13. Germans 01:21
14. Skid-Row Kid 02:57
15. Violent Science 04:08

LOG
Exact Audio Copy V0.99 prebeta 5 from 4. May 2009

EAC extraction logfile from 16. September 2010, 13:53

Risk / Dirty SurfAces (jap. edition)

Used drive : PIONEER DVD-RW DVR-116D Adapter: 0 ID: 0

Read mode : Secure
Utilize accurate stream : Yes
Defeat audio cache : Yes
Make use of C2 pointers : No

Read offset correction : 96
Overread into Lead-In and Lead-Out : No
Fill up missing offset samples with silence : Yes
Delete leading and trailing silent blocks : No
Null samples used in CRC calculations : Yes
Used interface : Native Win32 interface for Win NT & 2000

Used output format : User Defined Encoder
Selected bitrate : 32 kBit/s
Quality : High
Add ID3 tag : No
Command line compressor : C:\Program Files\Exact Audio Copy\Flac\flac.exe
Additional command line options : -6 -V %s


TOC of the extracted CD

Track | Start | Length | Start sector | End sector
---------------------------------------------------------
1 | 0:00.37 | 1:37.63 | 37 | 7374
2 | 1:38.25 | 3:39.47 | 7375 | 23846
3 | 5:17.72 | 4:08.45 | 23847 | 42491
4 | 9:26.42 | 6:41.30 | 42492 | 72596
5 | 16:07.72 | 5:01.43 | 72597 | 95214
6 | 21:09.40 | 5:10.67 | 95215 | 118531
7 | 26:20.32 | 3:29.18 | 118532 | 134224
8 | 29:49.50 | 6:36.60 | 134225 | 163984
9 | 36:26.35 | 6:57.47 | 163985 | 195306
10 | 43:24.07 | 3:40.15 | 195307 | 211821
11 | 47:04.22 | 3:39.13 | 211822 | 228259
12 | 50:43.35 | 10:37.00 | 228260 | 276034
13 | 61:20.35 | 1:21.60 | 276035 | 282169
14 | 62:42.20 | 2:57.40 | 282170 | 295484
15 | 65:39.60 | 4:08.02 | 295485 | 314086


Range status and errors

Selected range

Filename D:\Музыка\Lossless\Risk - Dirty Surfaces (Japan) (1990)\Risk - Dirty Surfaces (jap. edition).wav

Peak level 99.3 %
Range quality 99.8 %
Copy CRC 9FDFF158
Copy OK

No errors occurred


AccurateRip summary

Track 1 accurately ripped (confidence 1) [9158F005]
Track 2 accurately ripped (confidence 1) [660AA4A5]
Track 3 accurately ripped (confidence 1) [213EFED1]
Track 4 accurately ripped (confidence 1) [700880E0]
Track 5 accurately ripped (confidence 1) [BA0D192B]
Track 6 accurately ripped (confidence 1) [54694401]
Track 7 accurately ripped (confidence 1) [C29553BC]
Track 8 accurately ripped (confidence 1) [C93D4D28]
Track 9 accurately ripped (confidence 1) [C005F0A9]
Track 10 accurately ripped (confidence 1) [944954EF]
Track 11 accurately ripped (confidence 1) [905B561B]
Track 12 accurately ripped (confidence 1) [37CB1FD6]
Track 13 accurately ripped (confidence 1) [26601C2B]
Track 14 accurately ripped (confidence 1) [DA53FEE9]
Track 15 accurately ripped (confidence 1) [C40AF601]

All tracks accurately ripped

End of status report

Spectrum
Image

CUE
REM GENRE "Thrash Metal"
REM DATE 1990
REM DISCID DF105B0F
REM COMMENT "ExactAudioCopy v0.99pb5"
PERFORMER "Risk"
TITLE "Dirty SurfAces (jap. edition)"
FILE "Risk - Dirty Surfaces (jap. edition).flac" WAVE
TRACK 01 AUDIO
TITLE "Beach Panic"
PERFORMER "Risk"
INDEX 00 00:00:00
INDEX 01 00:00:37
TRACK 02 AUDIO
TITLE "Pyromaniac Man"
PERFORMER "Risk"
INDEX 01 01:38:25
TRACK 03 AUDIO
TITLE "Legend of the Kings"
PERFORMER "Risk"
INDEX 01 05:17:72
TRACK 04 AUDIO
TITLE "Warchild"
PERFORMER "Risk"
INDEX 01 09:26:42
TRACK 05 AUDIO
TITLE "Paralised"
PERFORMER "Risk"
INDEX 01 16:07:72
TRACK 06 AUDIO
TITLE "Like a Roller-Coaster"
PERFORMER "Risk"
INDEX 01 21:09:40
TRACK 07 AUDIO
TITLE "Blood is Red"
PERFORMER "Risk"
INDEX 01 26:20:32
TRACK 08 AUDIO
TITLE "Letter From Beyond"
PERFORMER "Risk"
INDEX 00 29:49:13
INDEX 01 29:49:50
TRACK 09 AUDIO
TITLE "Bury My Heart"
PERFORMER "Risk"
INDEX 00 36:25:73
INDEX 01 36:26:35
TRACK 10 AUDIO
TITLE "Dirty Surfaces"
PERFORMER "Risk"
INDEX 00 43:23:57
INDEX 01 43:24:07
TRACK 11 AUDIO
TITLE "Iron Wheels"
PERFORMER "Risk"
INDEX 01 47:04:22
TRACK 12 AUDIO
TITLE "Ratman"
PERFORMER "Risk"
INDEX 00 50:42:34
INDEX 01 50:43:35
TRACK 13 AUDIO
TITLE "Germans"
PERFORMER "Risk"
INDEX 01 61:20:35
TRACK 14 AUDIO
TITLE "Skid-Row Kid"
PERFORMER "Risk"
INDEX 01 62:42:20
TRACK 15 AUDIO
TITLE "Violent Science"
PERFORMER "Risk"
INDEX 00 65:38:13
INDEX 01 65:39:60


Yadi


Last edited by church on 15 Nov 2015, edited 2 times in total.

Top
 Profile E-mail  
 
 
PostPosted: 16 Nov 2015 
ТрэшЭрос
User avatar
Joined: 18 Jul 2011
Posts: 2296
Lоcаtion: Гулькевичи
Age: 43
Name: Александр
church :thanx:

_________________
Thrash no trash!!!


Top
 Profile E-mail  
 
Display posts from previous:  Sort by  
Post new topic Reply to topic  [ 21 posts ]  Go to page Previous  1, 2

All times are UTC + 3 hours


Who is online

Users browsing this forum: No registered users and 1 guest


You cannot post new topics in this forum
You cannot reply to topics in this forum
You cannot edit your posts in this forum
You cannot delete your posts in this forum
You cannot post attachments in this forum

Search for:
Яндекс.Метрика
cron
Powered by phpBB © 2000, 2002, 2005, 2007 phpBB Group