\m/ 80's metal \m/

Информационно-аналитический форум "80 см пыли" (In Search We Trust) "У нас никто никуда не спешит"
Me For You - http://me-4u.com
It is currently 11 Dec 2019

All times are UTC + 3 hours

Spoiler
Chat - temporary registration for foreign users (please leave your application here)







Post new topic Reply to topic  [ 22 posts ]  Go to page 1, 2  Next
Author Message
 
PostPosted: 21 Sep 2010 
ыыыы
User avatar
Joined: 17 May 2009
Posts: 952
Lоcаtion: Пушкино, МО
Age: 41
Name: Дмитрий
Image Image


Жанр: Heavy Metal
Происхождение исполнителя: Германия
Год издания: 1987/1988
Год издания данного носителя: 1990
Страна-производитель носителя: Япония
Аудио кодек: FLAC
Тип рипа: image+.cue
Битрейт аудио: lossless
Продолжительность: 35:03+44:17
Рип: Собственный
Лейбл: NOISE/VICTOR
Каталоговый номер: VICP-40013~14

######################################################

Under Jolly Roger
Матрица: VICP-40013-1-A1F 11 V (JVC)

Треклист:
1. Under Jolly Roger 04:43
2. Beggar's Night 05:06
3. Diamonds of the Black Chest 03:07
4. War in the Gutter 03:19
5. Raise Your Fist 05:29
6. Land of Ice 04:56
7. Raw Ride 04:34
8. Merciless Game 03:49

"Куй"
REM GENRE "Heavy Metal"
REM DATE 1987
REM DISCID 76083708
REM COMMENT "ExactAudioCopy v0.99pb5"
PERFORMER "RUNNING WILD"
TITLE "UNDER JOLLY ROGER [VICP-40013~14]"
FILE "RUNNING WILD - UNDER JOLLY ROGER [VICP-40013~14].flac" WAVE
TRACK 01 AUDIO
TITLE "Under Jolly Roger"
PERFORMER "RUNNING WILD"
INDEX 00 00:00:00
INDEX 01 00:00:37
TRACK 02 AUDIO
TITLE "Beggar's Night"
PERFORMER "RUNNING WILD"
INDEX 01 04:43:22
TRACK 03 AUDIO
TITLE "Diamonds Of The Black Chest"
PERFORMER "RUNNING WILD"
INDEX 01 09:49:15
TRACK 04 AUDIO
TITLE "War In The Gutter"
PERFORMER "RUNNING WILD"
INDEX 01 12:56:47
TRACK 05 AUDIO
TITLE "Raise Your Fist"
PERFORMER "RUNNING WILD"
INDEX 01 16:15:50
TRACK 06 AUDIO
TITLE "Land Of Ice"
PERFORMER "RUNNING WILD"
INDEX 01 21:44:67
TRACK 07 AUDIO
TITLE "Raw Ride"
PERFORMER "RUNNING WILD"
INDEX 01 26:40:35
TRACK 08 AUDIO
TITLE "Merciless Game"
PERFORMER "RUNNING WILD"
INDEX 01 31:14:50


"Лог"
Exact Audio Copy V0.99 prebeta 5 from 4. May 2009

Отчёт EAC об извлечении, выполненном 21. сентября 2010, 12:28

RUNNING WILD / UNDER JOLLY ROGER [VICP-40013~14]

Дисковод: Optiarc DVD RW AD-7200A Adapter: 1 ID: 0

Режим чтения : Достоверность
Использование точного потока : Да
Отключение кэша аудио : Да
Использование указателей C2 : Нет

Коррекция смещения при чтении : 48
Способность читать области Lead-in и Lead-out : Нет
Заполнение пропущенных сэмплов тишиной : Да
Удаление блоков с тишиной в начале и конце : Нет
При вычислениях CRC использовались нулевые сэмплы : Да
Интерфейс : Встроенный Win32-интерфейс для Win NT/2000

Выходной формат : Пользовательский кодировщик
Выбранный битрейт : 128 kBit/s
Качество : Высокий
Добавление ID3-тэга : Нет
Утилита сжатия : C:\Program Files\Exact Audio Copy\Flac\flac.exe
Дополнительные параметры : -8 -V -T "artist=%a" -T "title=%t" -T "album=%g" -T "date=%y" -T "tracknumber=%n" -T "genre=%m" -T "comment=EAC


TOC извлечённого CD

Трек | Старт | Длительность | Начальный сектор | Конечный сектор
---------------------------------------------------------------------
1 | 0:00.37 | 4:42.60 | 37 | 21246
2 | 4:43.22 | 5:05.68 | 21247 | 44189
3 | 9:49.15 | 3:07.32 | 44190 | 58246
4 | 12:56.47 | 3:19.03 | 58247 | 73174
5 | 16:15.50 | 5:29.17 | 73175 | 97866
6 | 21:44.67 | 4:55.43 | 97867 | 120034
7 | 26:40.35 | 4:34.15 | 120035 | 140599
8 | 31:14.50 | 3:49.12 | 140600 | 157786


Характеристики диапазона извлечения и сообщения об ошибках

Выбранный диапазон

Имя файла Y:\Музыка\Running Wild\1987 Under Jolly Roger\RUNNING WILD - UNDER JOLLY ROGER [VICP-40013~14].wav

Пиковый уровень 100.0 %
Качество диапазона 100.0 %
CRC копии FF489B61
Копирование... OK

Ошибок не произошло


AccurateRip: сводка

Трек 1 нет в базе данных
Трек 2 нет в базе данных
Трек 3 нет в базе данных
Трек 4 нет в базе данных
Трек 5 нет в базе данных
Трек 6 нет в базе данных
Трек 7 нет в базе данных
Трек 8 нет в базе данных

Ни одного трека нет в базе AccurateRip

Конец отчёта

Состав:
Rolf Kasparek: Vocals, guitar
Majk Moti: Guitar
Stephen Boriss: Bass
Wolfgang "Hasche" Hagemann: Drums

######################################################

Port Royal
Матрица: VICP-40014-1-A2D 11 V (JVC)

Треклист:
1. Intro 00:50
2. Port Royal 04:11
3. Raging Fire 03:29
4. Into the Arena 03:59
5. Uaschitschun 04:54
6. Final Gates (instrumental) 02:59
7. Conquistadores 04:50
8. Blown to Kingdom Come 03:20
9. Warchild 03:01
10. Mutiny 04:28
11. Calico Jack 08:17

"Куй"
REM GENRE "Heavy Metal"
REM DATE 1988
REM DISCID 6B0A610B
REM COMMENT "ExactAudioCopy v0.99pb5"
PERFORMER "RUNNING WILD"
TITLE "PORT ROYAL [VICP-40013~14]"
FILE "RUNNING WILD - PORT ROYAL [VICP-40013~14].flac" WAVE
TRACK 01 AUDIO
TITLE "Intro"
PERFORMER "RUNNING WILD"
INDEX 00 00:00:00
INDEX 01 00:00:37
TRACK 02 AUDIO
TITLE "Port Royal"
PERFORMER "RUNNING WILD"
INDEX 01 00:50:02
TRACK 03 AUDIO
TITLE "Raging Fire"
PERFORMER "RUNNING WILD"
INDEX 01 05:01:37
TRACK 04 AUDIO
TITLE "Into The Arena"
PERFORMER "RUNNING WILD"
INDEX 01 08:30:07
TRACK 05 AUDIO
TITLE "Uaschitschun"
PERFORMER "RUNNING WILD"
INDEX 01 12:28:62
TRACK 06 AUDIO
TITLE "Final Gates"
PERFORMER "RUNNING WILD"
INDEX 01 17:22:37
TRACK 07 AUDIO
TITLE "Conquistadores"
PERFORMER "RUNNING WILD"
INDEX 00 20:20:50
INDEX 01 20:21:45
TRACK 08 AUDIO
TITLE "Blown To Kingdom Come"
PERFORMER "RUNNING WILD"
INDEX 01 25:11:42
TRACK 09 AUDIO
TITLE "Warchild"
PERFORMER "RUNNING WILD"
INDEX 01 28:31:15
TRACK 10 AUDIO
TITLE "Mutiny"
PERFORMER "RUNNING WILD"
INDEX 01 31:32:50
TRACK 11 AUDIO
TITLE "Calico Jack"
PERFORMER "RUNNING WILD"
INDEX 01 36:00:15


"Лог"
Exact Audio Copy V0.99 prebeta 5 from 4. May 2009

Отчёт EAC об извлечении, выполненном 21. сентября 2010, 12:45

RUNNING WILD / PORT ROYAL [VICP-40013~14]

Дисковод: Optiarc DVD RW AD-7200A Adapter: 1 ID: 0

Режим чтения : Достоверность
Использование точного потока : Да
Отключение кэша аудио : Да
Использование указателей C2 : Нет

Коррекция смещения при чтении : 48
Способность читать области Lead-in и Lead-out : Нет
Заполнение пропущенных сэмплов тишиной : Да
Удаление блоков с тишиной в начале и конце : Нет
При вычислениях CRC использовались нулевые сэмплы : Да
Интерфейс : Встроенный Win32-интерфейс для Win NT/2000

Выходной формат : Пользовательский кодировщик
Выбранный битрейт : 128 kBit/s
Качество : Высокий
Добавление ID3-тэга : Нет
Утилита сжатия : C:\Program Files\Exact Audio Copy\Flac\flac.exe
Дополнительные параметры : -8 -V -T "artist=%a" -T "title=%t" -T "album=%g" -T "date=%y" -T "tracknumber=%n" -T "genre=%m" -T "comment=EAC


TOC извлечённого CD

Трек | Старт | Длительность | Начальный сектор | Конечный сектор
---------------------------------------------------------------------
1 | 0:00.37 | 0:49.40 | 37 | 3751
2 | 0:50.02 | 4:11.35 | 3752 | 22611
3 | 5:01.37 | 3:28.45 | 22612 | 38256
4 | 8:30.07 | 3:58.55 | 38257 | 56161
5 | 12:28.62 | 4:53.50 | 56162 | 78186
6 | 17:22.37 | 2:59.08 | 78187 | 91619
7 | 20:21.45 | 4:49.72 | 91620 | 113366
8 | 25:11.42 | 3:19.48 | 113367 | 128339
9 | 28:31.15 | 3:01.35 | 128340 | 141949
10 | 31:32.50 | 4:27.40 | 141950 | 162014
11 | 36:00.15 | 8:16.60 | 162015 | 199274


Характеристики диапазона извлечения и сообщения об ошибках

Выбранный диапазон

Имя файла Y:\Музыка\Running Wild\1988 Port Royal\RUNNING WILD - PORT ROYAL [VICP-40013~14].wav

Пиковый уровень 100.0 %
Качество диапазона 100.0 %
CRC копии D9BD8F37
Копирование... OK

Ошибок не произошло


AccurateRip: сводка

Трек 1 нет в базе данных
Трек 2 нет в базе данных
Трек 3 нет в базе данных
Трек 4 нет в базе данных
Трек 5 нет в базе данных
Трек 6 нет в базе данных
Трек 7 нет в базе данных
Трек 8 нет в базе данных
Трек 9 нет в базе данных
Трек 10 нет в базе данных
Трек 11 нет в базе данных

Ни одного трека нет в базе AccurateRip

Конец отчёта

Состав:
Rolf Kasparek: Vocals, guitar
Majk Moti: Guitar
Jens Becker: Bass
Stefan Schwarzmann: Drums

Under Jolly Roger
Port Royal

_________________
Витасу до Даймонда как Алсу до Руссоса | При переразмещении - спрашивать разрешение!!


Last edited by iezuit on 21 Sep 2010, edited 1 time in total.

Top
 Profile  
 
 
PostPosted: 21 Sep 2010 
Хиппей (support team)
User avatar
Joined: 30 Jul 2007
Posts: 116079
Lоcаtion: Киев (Kyiv, UA)
Age: 46
Name: Andrey
АААААААААААА, йопона мать!! :true: :true: :true:

_________________


Top
 Profile E-mail  
 
 
PostPosted: 21 Sep 2010 
Персональный статус
Joined: 14 May 2010
Posts: 236
Age: 38
Name: Денис
да мать. Дмитрий, огромное Спасибо от моего брата.


Top
 Profile  
 
 
PostPosted: 21 Sep 2010 
5cm
User avatar
Joined: 01 Mar 2009
Posts: 61
Name: Сергей
СПАСИБО!!


Top
 Profile  
 
 
PostPosted: 21 Sep 2010 
Хиппей (support team)
User avatar
Joined: 30 Jul 2007
Posts: 116079
Lоcаtion: Киев (Kyiv, UA)
Age: 46
Name: Andrey
disabled wrote:
Спасибо от моего брата

А он чего молчит здесь? :vic:

_________________


Top
 Profile E-mail  
 
 
PostPosted: 21 Sep 2010 
ыыыы
User avatar
Joined: 17 May 2009
Posts: 952
Lоcаtion: Пушкино, МО
Age: 41
Name: Дмитрий
во во. Как рыба об лёд

_________________
Витасу до Даймонда как Алсу до Руссоса | При переразмещении - спрашивать разрешение!!


Top
 Profile  
 
 
PostPosted: 21 Sep 2010 
А может смените мне статус?..
User avatar
Joined: 24 Dec 2008
Posts: 650
Age: 45
Name: Дмитрий
Круть! Самые любимые альбомы группы! Да ещё и на ипона-носителях!!! :losik: :losik: :dance: :dance: :thanx: :thanx:


Top
 Profile  
 
 
PostPosted: 21 Sep 2010 
metallpaparazzy
User avatar
Joined: 20 Dec 2009
Posts: 674
Lоcаtion: Днепропетровск
Age: 44
Name: Геннадий
:true: :true: :true:
вчера наковырял "Роджера..." на палке с 4-я проволоками... втыкнул ее в министудию, и збацал с "Ранингами"... на коде -- оргазм!!!! :crazy: :punko: :band:


Top
 Profile E-mail  
 
 
PostPosted: 21 Sep 2010 
Персональный статус
Joined: 14 May 2010
Posts: 236
Age: 38
Name: Денис
Scatterbrain wrote:
А он чего молчит здесь? :vic:
iezuit wrote:
во во. Как рыба об лёд
А он здесь не бывает, и не зарегистрирован.


Top
 Profile  
 
 
PostPosted: 21 Sep 2010 
Alive Again
User avatar
Joined: 17 Dec 2008
Posts: 4750
Lоcаtion: Курск Воронеж Оскол
Age: 45
Name: Дмитрий
:hi: :yahoo: :thanx:


Top
 Profile E-mail  
 
 
PostPosted: 21 Sep 2010 
.
User avatar
Joined: 25 Aug 2007
Posts: 568
Lоcаtion: Москва
Age: 107
Name: Kostolom
Народ, кто-нибудь может поделиться сканом обишки, если таковая есть? У меня родной, но без неё. Я не фэн этих стрипов...но не в этом случае. СПасибо.


Top
 Profile  
 
 
PostPosted: 21 Sep 2010 
Пионэръ
Joined: 08 Mar 2010
Posts: 36
Lоcаtion: Россия
Age: 40
Name: Иван
Kostolom
Может картинки подкинешь?

Дина спасибо за классиков, раннинги это вещь :meloman:


Top
 Profile E-mail  
 
 
PostPosted: 21 Sep 2010 
HAMMER
User avatar
Joined: 16 May 2009
Posts: 5488
Lоcаtion: Тверь
Age: 47
Name: Александр
Оуаеваю. Спасибо.


Top
 Profile E-mail  
 
 
PostPosted: 21 Sep 2010 
Gretzky must die
User avatar
Joined: 16 Sep 2010
Posts: 265
Lоcаtion: Московская обл.
Name: Андрей
"Конкистадорз !" :true: Спасибо Дмитрий - в "лосиную" коллекцию немедленно ! :thanx:


Top
 Profile  
 
 
PostPosted: 21 Sep 2010 
спирт 100%
User avatar
Joined: 22 Sep 2008
Posts: 4500
Age: 48
Name: Саня
Дим,БОЛЬШОЕ СПАСИБО!!! :thanx: :true:


Top
 Profile  
 
 
PostPosted: 22 Sep 2010 
Alive Again
User avatar
Joined: 17 Dec 2008
Posts: 4750
Lоcаtion: Курск Воронеж Оскол
Age: 45
Name: Дмитрий
первый раз решил посмотреть новости Heavy, Power, Progressive (lossless) на торренте... как все быстро-слаженно работает,
http://rutracker.org/forum/viewtopic.php?t=3169050
http://rutracker.org/forum/viewtopic.php?t=3169491

особенно если учесть, что одного пользователя с ником ikebana по непонятному мне стечению обстоятельств забанили :shok:
rutracker.org превратился в филиал форума Андрея Саныча :nunu:


Top
 Profile E-mail  
 
 
PostPosted: 22 Sep 2010 
ыыыы
User avatar
Joined: 17 May 2009
Posts: 952
Lоcаtion: Пушкино, МО
Age: 41
Name: Дмитрий
практически на потоке))

_________________
Витасу до Даймонда как Алсу до Руссоса | При переразмещении - спрашивать разрешение!!


Top
 Profile  
 
 
PostPosted: 22 Sep 2010 
Персональный статус
Joined: 14 May 2010
Posts: 236
Age: 38
Name: Денис
что такое.. кто-то недоволен качеством икебановских мануфактур? :true:


Top
 Profile  
 
 
PostPosted: 22 Sep 2010 
Хиппей (support team)
User avatar
Joined: 30 Jul 2007
Posts: 116079
Lоcаtion: Киев (Kyiv, UA)
Age: 46
Name: Andrey
А чиво Херетик застрял на торренте? :oops:

_________________


Top
 Profile E-mail  
 
 
PostPosted: 22 Sep 2010 
ыыыы
User avatar
Joined: 17 May 2009
Posts: 952
Lоcаtion: Пушкино, МО
Age: 41
Name: Дмитрий
как это-застрял? раздается вроде!

_________________
Витасу до Даймонда как Алсу до Руссоса | При переразмещении - спрашивать разрешение!!


Top
 Profile  
 
Display posts from previous:  Sort by  
Post new topic Reply to topic  [ 22 posts ]  Go to page 1, 2  Next

All times are UTC + 3 hours


Who is online

Users browsing this forum: No registered users and 1 guest


You cannot post new topics in this forum
You cannot reply to topics in this forum
You cannot edit your posts in this forum
You cannot delete your posts in this forum
You cannot post attachments in this forum

Search for:
Яндекс.Метрика
Powered by phpBB © 2000, 2002, 2005, 2007 phpBB Group