\m/ 80's metal \m/

Информационно-аналитический форум "80 см пыли" (In Search We Trust) "У нас никто никуда не спешит"
Железнодорожная биржа - RailAgent
It is currently 21 Feb 2018

All times are UTC + 3 hours

Spoiler
Chat - temporary registration for foreign users (please leave your application here)







Post new topic Reply to topic  [ 4 posts ] 
Author Message
 
PostPosted: 11 Jun 2010 
ыыыы
User avatar
Joined: 17 May 2009
Posts: 952
Lоcаtion: Пушкино, МО
Age: 39
Name: Дмитрий
Image


Жанр: Hard Rock
Происхождение исполнителя: Англия
Год издания: 1979
Год издания данного носителя: 1986
Страна-производитель носителя: Япония
Аудио кодек: FLAC
Тип рипа: image+.cue
Битрейт аудио: lossless
Продолжительность: 36:52
Рип: Собственный
Лейбл: POLYDOR K.K.
Каталоговый номер: P33P-25018
Матрица: P33P-25018-A2E 11 (JVC)

Треклист:
1. All Night Long 03:55
2. Eyes of the World 06:46
3. No Time to Lose 03:47
4. Makin' Love 04:40
5. Since You Been Gone 03:22
6. Love's No Friend 04:56
7. Danger Zone 04:33
8. Lost in Hollywood 04:54

"Куй"
REM GENRE "Hard Rock"
REM DATE 1979
REM DISCID 5908A408
REM COMMENT "ExactAudioCopy v0.99pb5"
PERFORMER "RAINBOW"
TITLE "Down To Earth [P33P-25018]"
FILE "RAINBOW - Down To Earth [P33P-25018].flac" WAVE
TRACK 01 AUDIO
TITLE "All Night Long"
PERFORMER "RAINBOW"
INDEX 00 00:00:00
INDEX 01 00:00:37
TRACK 02 AUDIO
TITLE "Eyes Of The World"
PERFORMER "RAINBOW"
INDEX 00 03:53:70
INDEX 01 03:55:20
TRACK 03 AUDIO
TITLE "No Time To Lose"
PERFORMER "RAINBOW"
INDEX 00 10:38:55
INDEX 01 10:41:30
TRACK 04 AUDIO
TITLE "Makin' Love"
PERFORMER "RAINBOW"
INDEX 00 14:25:15
INDEX 01 14:28:02
TRACK 05 AUDIO
TITLE "Since You Been Gone"
PERFORMER "RAINBOW"
INDEX 00 19:06:23
INDEX 01 19:08:02
TRACK 06 AUDIO
TITLE "Love's No Friend"
PERFORMER "RAINBOW"
INDEX 00 22:27:28
INDEX 01 22:29:62
TRACK 07 AUDIO
TITLE "Danger Zone"
PERFORMER "RAINBOW"
INDEX 00 27:24:55
INDEX 01 27:25:40
TRACK 08 AUDIO
TITLE "Lost In Hollywood"
PERFORMER "RAINBOW"
INDEX 00 31:56:40
INDEX 01 31:58:65


"Лог"
Exact Audio Copy V0.99 prebeta 5 from 4. May 2009

Отчёт EAC об извлечении, выполненном 11. июня 2010, 21:09

RAINBOW / Down To Earth [P33P-25018]

Дисковод: MATSHITADVD-RAM UJ-850S Adapter: 0 ID: 0

Режим чтения : Достоверность
Использование точного потока : Да
Отключение кэша аудио : Да
Использование указателей C2 : Нет

Коррекция смещения при чтении : 102
Способность читать области Lead-in и Lead-out : Нет
Заполнение пропущенных сэмплов тишиной : Да
Удаление блоков с тишиной в начале и конце : Нет
При вычислениях CRC использовались нулевые сэмплы : Да
Интерфейс : Установленный внешний ASPI-интерфейс

Выходной формат : Пользовательский кодировщик
Выбранный битрейт : 128 kBit/s
Качество : Высокий
Добавление ID3-тэга : Нет
Утилита сжатия : C:\Program Files\Exact Audio Copy\Flac\flac.exe
Дополнительные параметры : -6 -V -T "artist=%a" -T "title=%t" -T "album=%g" -T "date=%y" -T "tracknumber=%n" -T "genre=%m" -T "comment=EAC 0.99beta5 / FLAC 1.1.0 q6" %s


TOC извлечённого CD

Трек | Старт | Длительность | Начальный сектор | Конечный сектор
---------------------------------------------------------------------
1 | 0:00.37 | 3:54.58 | 37 | 17644
2 | 3:55.20 | 6:46.10 | 17645 | 48104
3 | 10:41.30 | 3:46.47 | 48105 | 65101
4 | 14:28.02 | 4:40.00 | 65102 | 86101
5 | 19:08.02 | 3:21.60 | 86102 | 101236
6 | 22:29.62 | 4:55.53 | 101237 | 123414
7 | 27:25.40 | 4:33.25 | 123415 | 143914
8 | 31:58.65 | 4:53.50 | 143915 | 165939


Характеристики диапазона извлечения и сообщения об ошибках

Выбранный диапазон

Имя файла Y:\Музыка\Rainbow\1979 Down To Earth\RAINBOW - Down To Earth [P33P-25018].wav

Пиковый уровень 100.0 %
Качество диапазона 99.9 %
CRC копии 075FAFB1
Копирование... OK

Ошибок не произошло


AccurateRip: сводка

Трек 1 точность не определена (достоверность 2) [A4C1A5CD], AccurateRip вернул [B9E7B2C5]
Трек 2 точность не определена (достоверность 2) [37BB1288], AccurateRip вернул [394310B2]
Трек 3 точность не определена (достоверность 2) [531F94F0], AccurateRip вернул [2B28A72D]
Трек 4 точность не определена (достоверность 2) [B81A5924], AccurateRip вернул [C6096341]
Трек 5 точность не определена (достоверность 2) [8F0038D1], AccurateRip вернул [76C3FA69]
Трек 6 точность не определена (достоверность 2) [56EF83C6], AccurateRip вернул [11A0275B]
Трек 7 точность не определена (достоверность 2) [FAD54FA3], AccurateRip вернул [9F08A7FF]
Трек 8 точность не определена (достоверность 2) [8D24BB07], AccurateRip вернул [53C1E55E]

Ни один трек не прошёл проверки на точность
В вашей базе может быть иной вариант штамповки диска

Конец отчёта


Состав:
Graham Bonnet: Vocals
Ritchie Blackmore: Guitar
Don Airey: Keyboards
Roger Glover: Bass
Cozy Powell: Drums

P33P-25018

_________________
Витасу до Даймонда как Алсу до Руссоса | При переразмещении - спрашивать разрешение!!


Top
 Profile  
 
 
PostPosted: 11 Jun 2010 
Персональный статус
Joined: 14 May 2010
Posts: 236
Age: 36
Name: Денис
вах.. а вот и он :au: Спасибо огромное!


Top
 Profile  
 
 
PostPosted: 13 Jun 2010 
Power Metal Maniac
User avatar
Joined: 09 Aug 2008
Posts: 6003
Lоcаtion: Москва
Age: 40
Name: Егор
о! заберу енто, послеДИОовский Радуг мну нравиццо! :true:

_________________
Long Live Metal!


Top
 Profile  
 
 
PostPosted: 17 Jun 2010 
Персональный статус
Joined: 14 May 2010
Posts: 236
Age: 36
Name: Денис
на бумаге номер указан как P33P 25018, а вот на диске P33P-25018. чёрточка. ;)


Top
 Profile  
 
Display posts from previous:  Sort by  
Post new topic Reply to topic  [ 4 posts ] 

All times are UTC + 3 hours


Who is online

Users browsing this forum: No registered users and 1 guest


You cannot post new topics in this forum
You cannot reply to topics in this forum
You cannot edit your posts in this forum
You cannot delete your posts in this forum
You cannot post attachments in this forum

Search for:
Яндекс.Метрика
Powered by phpBB © 2000, 2002, 2005, 2007 phpBB Group