\m/ 80's metal \m/

Информационно-аналитический форум "80 см пыли" (In Search We Trust) "У нас никто никуда не спешит"
Me For You - http://me-4u.com
It is currently 18 Nov 2019

All times are UTC + 3 hours

Spoiler
Chat - temporary registration for foreign users (please leave your application here)







Post new topic Reply to topic  [ 27 posts ]  Go to page Previous  1, 2
Author Message
 
PostPosted: 03 Jun 2010 
ыыыы
User avatar
Joined: 17 May 2009
Posts: 952
Lоcаtion: Пушкино, МО
Age: 41
Name: Дмитрий
* Перезалейте, пожалуйста: | Re-up please:
Ratt - 1985 - Invasion Of Your Privacy - Japan


Image


Жанр: Hard Rock
Происхождение исполнителя CША
Год издания: 1985
Год издания данного носителя: 1985
Страна-производитель носителя: Япония
Аудио кодек: FLAC
Тип рипа: image+.cue
Битрейт аудио: lossless
Продолжительность: 36:02
Рип: Собственный
Лейбл: ATLANTIC/WARNER-PIONEER
Каталоговый номер: 32XD-309
Матрица: 32XD-309 11A1 +++++ (SONY)

Треклист:
1. You're in Love 3:14
2. Never Use Love 3:56
3. Lay It Down 3:26
4. Give It All 3:21
5. Closer to My Heart 4:31
6. Between the Eyes 3:57
7. What You Give Is What You Get 3:48
8. Got Me on the Line 3:06
9. You Should Know by Now 3:29
10. Dangerous but Worth the Risk 3:30


"Куй"
REM GENRE "Hard Rock"
REM DATE 1985
REM DISCID 8808810A
REM COMMENT "ExactAudioCopy v0.99pb5"
PERFORMER "Ratt"
TITLE "Invasion Of Your Privacy [32XD-309]"
FILE "Ratt - Invasion Of Your Privacy [32XD-309].flac" WAVE
TRACK 01 AUDIO
TITLE "You're In Love"
PERFORMER "Ratt"
INDEX 01 00:00:00
TRACK 02 AUDIO
TITLE "Never Use Love"
PERFORMER "Ratt"
INDEX 01 03:14:37
TRACK 03 AUDIO
TITLE "Lay It Down"
PERFORMER "Ratt"
INDEX 01 07:10:27
TRACK 04 AUDIO
TITLE "Give It All"
PERFORMER "Ratt"
INDEX 01 10:36:00
TRACK 05 AUDIO
TITLE "Closer To My Heart"
PERFORMER "Ratt"
INDEX 01 13:56:62
TRACK 06 AUDIO
TITLE "Between The Eyes"
PERFORMER "Ratt"
INDEX 01 18:27:57
TRACK 07 AUDIO
TITLE "What You Give Is What You Get"
PERFORMER "Ratt"
INDEX 01 22:24:40
TRACK 08 AUDIO
TITLE "Got Me On The Line"
PERFORMER "Ratt"
INDEX 01 26:12:70
TRACK 09 AUDIO
TITLE "You Should Know By Now"
PERFORMER "Ratt"
INDEX 01 29:18:50
TRACK 10 AUDIO
TITLE "Dangerous But Worth The Risk"
PERFORMER "Ratt"
INDEX 01 32:48:12


"Лог"
Exact Audio Copy V0.99 prebeta 5 from 4. May 2009

Отчёт EAC об извлечении, выполненном 31. мая 2010, 23:56

Ratt / Invasion Of Your Privacy [32XD-309]

Дисковод: MATSHITADVD-RAM UJ-850S Adapter: 0 ID: 0

Режим чтения : Достоверность
Использование точного потока : Да
Отключение кэша аудио : Да
Использование указателей C2 : Нет

Коррекция смещения при чтении : 102
Способность читать области Lead-in и Lead-out : Нет
Заполнение пропущенных сэмплов тишиной : Да
Удаление блоков с тишиной в начале и конце : Нет
При вычислениях CRC использовались нулевые сэмплы : Да
Интерфейс : Установленный внешний ASPI-интерфейс

Выходной формат : Пользовательский кодировщик
Выбранный битрейт : 128 kBit/s
Качество : Высокий
Добавление ID3-тэга : Нет
Утилита сжатия : C:\Program Files\Exact Audio Copy\Flac\flac.exe
Дополнительные параметры : -6 -V -T "artist=%a" -T "title=%t" -T "album=%g" -T "date=%y" -T "tracknumber=%n" -T "genre=%m" -T "comment=EAC 0.99beta5 / FLAC 1.1.0 q6" %s


TOC извлечённого CD

Трек | Старт | Длительность | Начальный сектор | Конечный сектор
---------------------------------------------------------------------
1 | 0:00.00 | 3:14.37 | 0 | 14586
2 | 3:14.37 | 3:55.65 | 14587 | 32276
3 | 7:10.27 | 3:25.48 | 32277 | 47699
4 | 10:36.00 | 3:20.62 | 47700 | 62761
5 | 13:56.62 | 4:30.70 | 62762 | 83081
6 | 18:27.57 | 3:56.58 | 83082 | 100839
7 | 22:24.40 | 3:48.30 | 100840 | 117969
8 | 26:12.70 | 3:05.55 | 117970 | 131899
9 | 29:18.50 | 3:29.37 | 131900 | 147611
10 | 32:48.12 | 3:29.58 | 147612 | 163344


Характеристики диапазона извлечения и сообщения об ошибках

Выбранный диапазон

Имя файла Y:\Музыка\Ratt\1985 Invasion Of Your Privacy\Ratt - Invasion Of Your Privacy [32XD-309].wav

Пиковый уровень 89.1 %
Качество диапазона 100.0 %
CRC копии 4DEB7BA4
Копирование... OK

Ошибок не произошло


AccurateRip: сводка

Трек 1 нет в базе данных
Трек 2 нет в базе данных
Трек 3 нет в базе данных
Трек 4 нет в базе данных
Трек 5 нет в базе данных
Трек 6 нет в базе данных
Трек 7 нет в базе данных
Трек 8 нет в базе данных
Трек 9 нет в базе данных
Трек 10 нет в базе данных

Ни одного трека нет в базе AccurateRip

Конец отчёта


Состав:
Stephen Pearcy: Lead vocals
Warren DeMartini: Lead guitar
Robbin Crosby: Lead guitar
Juan Croucier: Bass
Bobby Blotzer: Drums

32XD-309

_________________
Витасу до Даймонда как Алсу до Руссоса | При переразмещении - спрашивать разрешение!!


Top
 Profile  
 
 
PostPosted: 16 May 2016 
Хиппей (support team)
User avatar
Joined: 30 Jul 2007
Posts: 115580
Lоcаtion: Киев (Kyiv, UA)
Age: 46
Name: Andrey
Завтра у Генки спрошу Авось он качал и не профукал :vic:
А Димка ж есть на Трахторе, да?

ikebana
У кого есть желание, попробуйте ему написать, правда последнее сообщение от него от 27-Июн-15

:thanx: Спасибо. Напишу и туда, как только сайт-форум оживёт :kro:

_________________


Top
 Profile E-mail  
 
 
PostPosted: 17 May 2016 
консэрваторъ
User avatar
Joined: 11 Aug 2007
Posts: 17492
Lоcаtion: Псков
Age: 45
Name: Сергей
Ааа... Дима iezuit ищется... :oops: Так он вроде отошёл совсем... :vic: :scratch:

_________________
THRASH 'EM ALL


Top
 Profile E-mail  
 
 
PostPosted: 17 May 2016 
Я набрал 1000 сообщений!
User avatar
Joined: 04 Jul 2009
Posts: 1357
Age: 46
Name: dima
splatty

куда? в иной мир?


Top
 Profile E-mail  
 
 
PostPosted: 17 May 2016 
Хиппей (support team)
User avatar
Joined: 30 Jul 2007
Posts: 115580
Lоcаtion: Киев (Kyiv, UA)
Age: 46
Name: Andrey
Scatterbrain wrote:
Напишу и туда, как только сайт-форум оживёт

А вот и сделал я это.

_________________


Top
 Profile E-mail  
 
 
PostPosted: 18 May 2016 
консэрваторъ
User avatar
Joined: 11 Aug 2007
Posts: 17492
Lоcаtion: Псков
Age: 45
Name: Сергей
от дел...

_________________
THRASH 'EM ALL


Top
 Profile E-mail  
 
 
PostPosted: 18 May 2016 
Я набрал 1000 сообщений!
User avatar
Joined: 04 Jul 2009
Posts: 1357
Age: 46
Name: dima
splatty

и я скоро отойду, лишь бы подальше от таких людей как Vknish и им подобных. Даже здесь покоя от них нет


Top
 Profile E-mail  
 
 
PostPosted: 18 May 2016 
консэрваторъ
User avatar
Joined: 11 Aug 2007
Posts: 17492
Lоcаtion: Псков
Age: 45
Name: Сергей
Все мы рано или поздно покинем... стоит ли сейчас ломать копья?.. Для этой же конкретной темы сейчас самое главное восстановит японского лосяша...

_________________
THRASH 'EM ALL


Top
 Profile E-mail  
 
Display posts from previous:  Sort by  
Post new topic Reply to topic  [ 27 posts ]  Go to page Previous  1, 2

All times are UTC + 3 hours


Who is online

Users browsing this forum: No registered users and 2 guests


You cannot post new topics in this forum
You cannot reply to topics in this forum
You cannot edit your posts in this forum
You cannot delete your posts in this forum
You cannot post attachments in this forum

Search for:
Яндекс.Метрика
Powered by phpBB © 2000, 2002, 2005, 2007 phpBB Group