\m/ 80's metal \m/

Информационно-аналитический форум "80 см пыли" (In Search We Trust) "У нас никто никуда не спешит"
Me For You - http://me-4u.com
It is currently 25 Aug 2019

All times are UTC + 3 hours

Spoiler
Chat - temporary registration for foreign users (please leave your application here)







Post new topic Reply to topic  [ 28 posts ]  Go to page 1, 2  Next
Author Message
 
PostPosted: 25 Apr 2010 
Анатолий
User avatar
Joined: 18 Oct 2008
Posts: 3525
Lоcаtion: Армавир
Age: 42
Name: Анатолий
Railway - "Welcome Tonite" - 1993

Image

1. Welcome Tonight 04:42
2. Steelhorse Riding 04:16
3. Red Light - Green Light 04:54
4. Let It Be (the Beatles cover) 05:09
5. Turn Me Up 'n Down 06:34
6. Living B Side Up 05:22
7. Drums of Freedom (Indian Rap) 03:53
8. Story of Love 04:15
9. Rock 'n Roll 05:30
10. Ride On 06:59
11. Tomorrow 05:08 ( bonus )

Total playing time 56:46

line-up:
Robert Haslinger (Vocals, Guitars)
Mike Sperner (Guitars)
Harry Enzian (Bass)
Hasi Haslinger (Drums)

Narod l MultiUp

За релиз огромная благодарность Norzaargh'у! :thanx:

P.S. Обложка милая...

log
Exact Audio Copy V0.99 prebeta 1 from 25. May 2007

Отчёт EAC об извлечении, выполненном 3. февраля 2008, 15:57

Railway / Welcome Tonite

Дисковод: ASUS DRW-1814BL Adapter: 0 ID: 0

Режим чтения : Достоверность
Использование точного потока : Да
Отключение кэша аудио : Нет
Использование указателей C2 : Нет

Коррекция смещения при чтении : 6
Способность читать области Lead-in и Lead-out : Нет
Заполнение пропущенных сэмплов тишиной : Да
Удаление блоков с тишиной в начале и конце : Нет
Интерфейс : Встроенный Win32-интерфейс для Win NT/2000

Выходной формат : Внутренние WAV-операции
Формат сэмплов : 44.100 Гц; 16 бит; стерео


TOC извлечённого CD

Трек | Старт | Длительность | Начальный сектор | Конечный сектор
---------------------------------------------------------------------
1 | 0:00.00 | 4:42.27 | 0 | 21176
2 | 4:42.27 | 4:15.55 | 21177 | 40356
3 | 8:58.07 | 4:54.10 | 40357 | 62416
4 | 13:52.17 | 5:08.65 | 62417 | 85581
5 | 19:01.07 | 6:34.25 | 85582 | 115156
6 | 25:35.32 | 5:22.20 | 115157 | 139326
7 | 30:57.52 | 3:53.25 | 139327 | 156826
8 | 34:51.02 | 4:14.70 | 156827 | 175946
9 | 39:05.72 | 5:30.30 | 175947 | 200726
10 | 44:36.27 | 6:59.28 | 200727 | 232179
11 | 51:35.55 | 5:08.52 | 232180 | 255331


Характеристики диапазона извлечения и сообщения об ошибках

Выбранный диапазон

Имя файла E:\Видео записи\Новая папка (12)\Новая папка (7)\Railway - Welcome Tonite.wav

Пиковый уровень 99.7 %
Качество диапазона 100.0 %
CRC копии 1846BD08
Копирование... OK

Ошибок не произошло

Конец отчёта


cue
REM GENRE "Heavy Metal"
REM DATE 1993
REM DISCID A00D4C0B
REM COMMENT "ExactAudioCopy v0.99pb1"
PERFORMER "Railway"
TITLE "Welcome Tonite"
FILE "Railway - Welcome Tonite.ape" WAVE
TRACK 01 AUDIO
TITLE "Welcome Tonite"
PERFORMER "Railway"
INDEX 01 00:00:00
TRACK 02 AUDIO
TITLE "Steelhorse-Riding"
PERFORMER "Railway"
INDEX 01 04:42:27
TRACK 03 AUDIO
TITLE "Red Light - Green Light"
PERFORMER "Railway"
INDEX 00 04:42:27
INDEX 01 08:58:07
TRACK 04 AUDIO
TITLE "Let It Be"
PERFORMER "Railway"
INDEX 00 04:42:27
INDEX 01 13:52:17
TRACK 05 AUDIO
TITLE "Turn Me Up 'n Down"
PERFORMER "Railway"
INDEX 00 04:42:27
INDEX 01 19:01:07
TRACK 06 AUDIO
TITLE "Living B'Side Up"
PERFORMER "Railway"
INDEX 00 04:42:27
INDEX 01 25:35:32
TRACK 07 AUDIO
TITLE "Drums Of Freedom (Indian Rap)"
PERFORMER "Railway"
INDEX 00 04:42:27
INDEX 01 30:57:52
TRACK 08 AUDIO
TITLE "Story Of Love"
PERFORMER "Railway"
INDEX 00 04:42:27
INDEX 01 34:51:02
TRACK 09 AUDIO
TITLE "Rock 'N Roll"
PERFORMER "Railway"
INDEX 00 04:42:27
INDEX 01 39:05:72
TRACK 10 AUDIO
TITLE "Ride On"
PERFORMER "Railway"
INDEX 00 04:42:27
INDEX 01 44:36:27
TRACK 11 AUDIO
TITLE "Tomorrow"
PERFORMER "Railway"
INDEX 00 04:42:27
INDEX 01 51:35:55


Top
 Profile E-mail  
 
 
PostPosted: 25 Apr 2010 
труъ антисионист
User avatar
Joined: 01 Aug 2007
Posts: 4544
Lоcаtion: Откуда и большинство из нас
Age: 38
Name: Дядя Вова
:true: :true: :true:

_________________
Image
Image


Top
 Profile  
 
 
PostPosted: 25 Apr 2010 
Хиппей (support team)
User avatar
Joined: 30 Jul 2007
Posts: 114093
Lоcаtion: Киев (Kyiv, UA)
Age: 46
Name: Andrey
Спасибо, Толь :thanx:

Луг, куй и картинки спёрли?... :vic:

_________________


Top
 Profile E-mail  
 
 
PostPosted: 25 Apr 2010 
Анатолий
User avatar
Joined: 18 Oct 2008
Posts: 3525
Lоcаtion: Армавир
Age: 42
Name: Анатолий
С компа удалил уже образ... :oops:


Top
 Profile E-mail  
 
 
PostPosted: 25 Apr 2010 
Хиппей (support team)
User avatar
Joined: 30 Jul 2007
Posts: 114093
Lоcаtion: Киев (Kyiv, UA)
Age: 46
Name: Andrey
Ок. А в архиве хоть всё что нужно другим, осталось? :crazy:

_________________


Top
 Profile E-mail  
 
 
PostPosted: 25 Apr 2010 
А может смените мне статус?..
User avatar
Joined: 24 Dec 2008
Posts: 647
Age: 45
Name: Дмитрий
Спасибо.


Top
 Profile  
 
 
PostPosted: 25 Apr 2010 
Прокъмитолист
User avatar
Joined: 12 Aug 2007
Posts: 6593
Lоcаtion: Санктъ-Петербуркъ
Age: 51
Name: Олекъ
вроде не было такого, забираю. спасибо, Толь! :thanx:

_________________
прокъметол - это музыко, от которово есть прок (ы)


Top
 Profile  
 
 
PostPosted: 25 Apr 2010 
Анатолий
User avatar
Joined: 18 Oct 2008
Posts: 3525
Lоcаtion: Армавир
Age: 42
Name: Анатолий
Scatterbrain wrote:
Ок. А в архиве хоть всё что нужно другим, осталось?


Лог есть, а вот каверов нет... :pardon:


Top
 Profile E-mail  
 
 
PostPosted: 25 Apr 2010 
Прокъмитолист
User avatar
Joined: 12 Aug 2007
Posts: 6593
Lоcаtion: Санктъ-Петербуркъ
Age: 51
Name: Олекъ
Privateer wrote:
а вот каверов нет...

вот те на... это ж самое ценное в этом альбоме :crazy:

_________________
прокъметол - это музыко, от которово есть прок (ы)


Top
 Profile  
 
 
PostPosted: 26 Apr 2010 
Хиппей (support team)
User avatar
Joined: 30 Jul 2007
Posts: 114093
Lоcаtion: Киев (Kyiv, UA)
Age: 46
Name: Andrey
Ну всё, отказываюсь качать :(

_________________


Top
 Profile E-mail  
 
 
PostPosted: 26 Apr 2010 
А может смените мне статус?..
Joined: 03 Jul 2009
Posts: 880
Lоcаtion: Serbia
Name: Laki
Thank you !!!!!


Top
 Profile E-mail  
 
 
PostPosted: 26 Apr 2010 
труъ антисионист
User avatar
Joined: 01 Aug 2007
Posts: 4544
Lоcаtion: Откуда и большинство из нас
Age: 38
Name: Дядя Вова
LOG
Exact Audio Copy V0.99 prebeta 1 from 25. May 2007

Отчёт EAC об извлечении, выполненном 3. февраля 2008, 15:57

Railway / Welcome Tonite

Дисковод: ASUS DRW-1814BL Adapter: 0 ID: 0

Режим чтения : Достоверность
Использование точного потока : Да
Отключение кэша аудио : Нет
Использование указателей C2 : Нет

Коррекция смещения при чтении : 6
Способность читать области Lead-in и Lead-out : Нет
Заполнение пропущенных сэмплов тишиной : Да
Удаление блоков с тишиной в начале и конце : Нет
Интерфейс : Встроенный Win32-интерфейс для Win NT/2000

Выходной формат : Внутренние WAV-операции
Формат сэмплов : 44.100 Гц; 16 бит; стерео


TOC извлечённого CD

Трек | Старт | Длительность | Начальный сектор | Конечный сектор
---------------------------------------------------------------------
1 | 0:00.00 | 4:42.27 | 0 | 21176
2 | 4:42.27 | 4:15.55 | 21177 | 40356
3 | 8:58.07 | 4:54.10 | 40357 | 62416
4 | 13:52.17 | 5:08.65 | 62417 | 85581
5 | 19:01.07 | 6:34.25 | 85582 | 115156
6 | 25:35.32 | 5:22.20 | 115157 | 139326
7 | 30:57.52 | 3:53.25 | 139327 | 156826
8 | 34:51.02 | 4:14.70 | 156827 | 175946
9 | 39:05.72 | 5:30.30 | 175947 | 200726
10 | 44:36.27 | 6:59.28 | 200727 | 232179
11 | 51:35.55 | 5:08.52 | 232180 | 255331


Характеристики диапазона извлечения и сообщения об ошибках

Выбранный диапазон

Имя файла E:\Видео записи\Новая папка (12)\Новая папка (7)\Railway - Welcome Tonite.wav

Пиковый уровень 99.7 %
Качество диапазона 100.0 %
CRC копии 1846BD08
Копирование... OK

Ошибок не произошло

Конец отчёта

_________________
Image
Image


Top
 Profile  
 
 
PostPosted: 26 Apr 2010 
Анатолий
User avatar
Joined: 18 Oct 2008
Posts: 3525
Lоcаtion: Армавир
Age: 42
Name: Анатолий
Scatterbrain

Ты его уже давно скачал. :crazy:


Top
 Profile E-mail  
 
 
PostPosted: 27 Apr 2010 
Хиппей (support team)
User avatar
Joined: 30 Jul 2007
Posts: 114093
Lоcаtion: Киев (Kyiv, UA)
Age: 46
Name: Andrey
Privateer wrote:
Ты его уже давно скачал. :crazy:

Странно, но ты прав :shok:

Прослушал только что в удовольствие два раза :meloman:
Да, это уже далеко но тот Рэйлвэй, который мы знаем по убойнейшим первым альбомам. Но... всё равно чем-то цепляет. Явно своей мелодичностью и отвязностью.
По ходу, муыканты просто джэмовали и затем решили всё это дело записать в студии. В итоге получился простенький и веселый хардынхэви без каких-либо заморочек. Слушается альбом на одном дыхании, после него остается какая-то солнечная теплота и... парочка хитов :dance:

_________________


Top
 Profile E-mail  
 
 
PostPosted: 27 Apr 2010 
Персональный статус
Joined: 06 Oct 2007
Posts: 339
Этого альбомчика не было, спасибо! :true:
Quote:
Отключение кэша аудио : Нет

Забыли кэш отключить :(


Top
 Profile  
 
 
PostPosted: 27 Apr 2010 
Хиппей (support team)
User avatar
Joined: 30 Jul 2007
Posts: 114093
Lоcаtion: Киев (Kyiv, UA)
Age: 46
Name: Andrey
Я не отключал ничо :fingal: :crazy:


Толь, а откуда вообще этот рип взялся?

_________________


Top
 Profile E-mail  
 
 
PostPosted: 28 Apr 2010 
Анатолий
User avatar
Joined: 18 Oct 2008
Posts: 3525
Lоcаtion: Армавир
Age: 42
Name: Анатолий
Scatterbrain wrote:
Толь, а откуда вообще этот рип взялся?


Из Олеговых залежей...


Top
 Profile E-mail  
 
 
PostPosted: 14 May 2010 
5cm
User avatar
Joined: 05 May 2009
Posts: 52
Lоcаtion: Kherson
Age: 48
Name: Oleg
Послухал . хотел катнуть, да вот борода Exact Audio Copy пышыт ошибка в 19 строке. и коврыыыы.плз.


Top
 Profile E-mail  
 
 
PostPosted: 14 May 2010 
Персональный статус
Joined: 02 Apr 2010
Posts: 223
Name: Андрей
ironbaback wrote:
Послухал . хотел катнуть, да вот борода Exact Audio Copy пышыт ошибка в 19 строке. и коврыыыы.плз.


Глянул, ошибка не только в 19 строке... их в cue целая гора! Открой cue блокнотом и удали отовсюду где она есть, вот эту строчку INDEX 00 04:42:27 и всё заработает. Кстати EAC не лучший вариант для записи дисков, хотя конечно тут многие любители "правильных" рипов со мной с удовольствием поспорят:) А какие никакие ковры есть здесь: http://cover-paradise.to/?Module=ViewEntry&ID=181621


Top
 Profile  
 
 
PostPosted: 14 May 2010 
5cm
User avatar
Joined: 05 May 2009
Posts: 52
Lоcаtion: Kherson
Age: 48
Name: Oleg
cammard - БЛАГОДАРЮ! А ковры такие нарыл.


Top
 Profile E-mail  
 
Display posts from previous:  Sort by  
Post new topic Reply to topic  [ 28 posts ]  Go to page 1, 2  Next

All times are UTC + 3 hours


Who is online

Users browsing this forum: No registered users and 1 guest


You cannot post new topics in this forum
You cannot reply to topics in this forum
You cannot edit your posts in this forum
You cannot delete your posts in this forum
You cannot post attachments in this forum

Search for:
Яндекс.Метрика
cron
Powered by phpBB © 2000, 2002, 2005, 2007 phpBB Group