\m/ 80's metal \m/

Информационно-аналитический форум "80 см пыли" (In Search We Trust) "У нас никто никуда не спешит"
Me For You - http://me-4u.com
It is currently 21 Aug 2019

All times are UTC + 3 hours

Spoiler
Chat - temporary registration for foreign users (please leave your application here)







Post new topic Reply to topic  [ 6 posts ] 
Author Message
 
PostPosted: 21 Apr 2010 
ыыыы
User avatar
Joined: 17 May 2009
Posts: 952
Lоcаtion: Пушкино, МО
Age: 40
Name: Дмитрий
Image


Жанр: Heavy Metal
Происхождение исполнителя: США
Год издания: 1988
Год издания данного носителя: 1988
Страна-производитель носителя: Япония
Аудио кодек: FLAC
Тип рипа: image+.cue
Битрейт аудио: lossless
Продолжительность: 40:26
Рип: Собственный
Лейбл: SHRAPNEL/SMS
Каталоговый номер: MP28-5330
Матрица: MP28-5330-A1E 21 (JVC)

Треклист:
1. Loud and clear 03:57
2. Dangerous love 03:23
3. Bruce's solo 02:43
4. Gone too far 02:57
5. John's solo 02:17
6. She wants control 03:41
7. Scit scat wah 03:58
8. Into the night 03:43
9. Paul's solo 03:37
10. Motor man 04:11
11. Scott's solo 02:26
12. Set the world on fire 03:33

"Куй"
REM GENRE "Heavy Metal"
REM DATE 1988
REM DISCID 97097A0C
REM COMMENT "ExactAudioCopy v0.99pb5"
PERFORMER "Racer X"
TITLE "Extreme Volume Live [MP28-5330]"
FILE "Racer X - Extreme Volume Live [MP28-5330].flac" WAVE
TRACK 01 AUDIO
TITLE "Loud And Clear"
PERFORMER "Racer X"
INDEX 00 00:00:00
INDEX 01 00:00:37
TRACK 02 AUDIO
TITLE "Dangerous Love"
PERFORMER "Racer X"
INDEX 01 03:57:37
TRACK 03 AUDIO
TITLE "Bruce's Solo"
PERFORMER "Racer X"
INDEX 00 07:20:36
INDEX 01 07:20:37
TRACK 04 AUDIO
TITLE "Gone Too Far"
PERFORMER "Racer X"
INDEX 00 10:03:36
INDEX 01 10:03:37
TRACK 05 AUDIO
TITLE "John's Solo"
PERFORMER "Racer X"
INDEX 01 13:00:37
TRACK 06 AUDIO
TITLE "She Want's Control"
PERFORMER "Racer X"
INDEX 01 15:17:37
TRACK 07 AUDIO
TITLE "Scit Scat Wah"
PERFORMER "Racer X"
INDEX 01 18:58:37
TRACK 08 AUDIO
TITLE "Into The Night"
PERFORMER "Racer X"
INDEX 00 22:56:36
INDEX 01 22:56:37
TRACK 09 AUDIO
TITLE "Paul's Solo"
PERFORMER "Racer X"
INDEX 00 26:39:35
INDEX 01 26:39:37
TRACK 10 AUDIO
TITLE "Motor Man"
PERFORMER "Racer X"
INDEX 01 30:16:37
TRACK 11 AUDIO
TITLE "Scott's Solo"
PERFORMER "Racer X"
INDEX 00 34:27:24
INDEX 01 34:27:25
TRACK 12 AUDIO
TITLE "Set The World On Fire"
PERFORMER "Racer X"
INDEX 00 36:53:36
INDEX 01 36:53:37


"Лог"
Exact Audio Copy V0.99 prebeta 5 from 4. May 2009

EAC extraction logfile from 21. April 2010, 9:51

Racer X / Extreme Volume Live [MP28-5330]

Used drive : Optiarc DVD RW AD-7200A Adapter: 0 ID: 0

Read mode : Secure
Utilize accurate stream : Yes
Defeat audio cache : Yes
Make use of C2 pointers : No

Read offset correction : 48
Overread into Lead-In and Lead-Out : No
Fill up missing offset samples with silence : Yes
Delete leading and trailing silent blocks : No
Null samples used in CRC calculations : Yes
Used interface : Native Win32 interface for Win NT & 2000

Used output format : User Defined Encoder
Selected bitrate : 128 kBit/s
Quality : High
Add ID3 tag : No
Command line compressor : C:\Program Files\Exact Audio Copy\Flac\flac.exe
Additional command line options : -8 -V -T "artist=%a" -T "title=%t" -T "album=%g" -T "date=%y" -T "tracknumber=%n" -T "genre=%m" -T "comment=EAC 0.9beta4 / FLAC 1.1.0 q6" %s


TOC of the extracted CD

Track | Start | Length | Start sector | End sector
---------------------------------------------------------
1 | 0:00.37 | 3:57.00 | 37 | 17811
2 | 3:57.37 | 3:23.00 | 17812 | 33036
3 | 7:20.37 | 2:43.00 | 33037 | 45261
4 | 10:03.37 | 2:57.00 | 45262 | 58536
5 | 13:00.37 | 2:17.00 | 58537 | 68811
6 | 15:17.37 | 3:41.00 | 68812 | 85386
7 | 18:58.37 | 3:58.00 | 85387 | 103236
8 | 22:56.37 | 3:43.00 | 103237 | 119961
9 | 26:39.37 | 3:37.00 | 119962 | 136236
10 | 30:16.37 | 4:10.63 | 136237 | 155049
11 | 34:27.25 | 2:26.12 | 155050 | 166011
12 | 36:53.37 | 3:33.00 | 166012 | 181986


Range status and errors

Selected range

Filename Y:\Музыка\Racer X\1988 Extreme Volume Live\Racer X - Extreme Volume Live [MP28-5330].wav

Peak level 100.0 %
Range quality 100.0 %
Copy CRC 05E7E36F
Copy OK

No errors occurred

End of status report


Состав:
Vocals: Jeff Martin
Guitars: Bruce Bouillet
Guitars: Paul Gilbert
Bass: John Alderete
Drums: Scott Travis

Народ

_________________
Витасу до Даймонда как Алсу до Руссоса | При переразмещении - спрашивать разрешение!!


Top
 Profile  
 
 
PostPosted: 21 Apr 2010 
дядя Миша
User avatar
Joined: 17 Oct 2008
Posts: 3166
Lоcаtion: USSR
Age: 56
Name: Khy
RARE!!!!!!!!!!!!!!!!!!! Ну как такое не взять! Спасибо!


Top
 Profile  
 
 
PostPosted: 21 Apr 2010 
ыыыы
User avatar
Joined: 17 May 2009
Posts: 952
Lоcаtion: Пушкино, МО
Age: 40
Name: Дмитрий
это начало серии ранних ФЕМС-СМС :dance:

_________________
Витасу до Даймонда как Алсу до Руссоса | При переразмещении - спрашивать разрешение!!


Top
 Profile  
 
 
PostPosted: 21 Apr 2010 
А может смените мне статус?..
Joined: 03 Jul 2009
Posts: 880
Lоcаtion: Serbia
Name: Laki
Excellent Cheers !!!!! They sounded much better live than on the albums. Part 2 if you have, please?


Top
 Profile E-mail  
 
 
PostPosted: 21 Apr 2010 
Хиппей (support team)
User avatar
Joined: 30 Jul 2007
Posts: 114011
Lоcаtion: Киев (Kyiv, UA)
Age: 46
Name: Andrey
:thanx:

_________________


Top
 Profile E-mail  
 
 
PostPosted: 21 Apr 2010 
Работнечег
User avatar
Joined: 28 Aug 2007
Posts: 5935
Lоcаtion: г. Москва
Age: 30
Name: Дима
Спасибо! :true:


Top
 Profile E-mail  
 
Display posts from previous:  Sort by  
Post new topic Reply to topic  [ 6 posts ] 

All times are UTC + 3 hours


Who is online

Users browsing this forum: No registered users and 1 guest


You cannot post new topics in this forum
You cannot reply to topics in this forum
You cannot edit your posts in this forum
You cannot delete your posts in this forum
You cannot post attachments in this forum

Search for:
Яндекс.Метрика
Powered by phpBB © 2000, 2002, 2005, 2007 phpBB Group