\m/ 80's metal \m/

Информационно-аналитический форум "80 см пыли" (In Search We Trust) "У нас никто никуда не спешит"
Me For You - http://me-4u.com
It is currently 24 Sep 2018

All times are UTC + 3 hours

Spoiler
Chat - temporary registration for foreign users (please leave your application here)







Post new topic Reply to topic  [ 3 posts ] 
Author Message
 
PostPosted: 13 Apr 2010 
ыыыы
User avatar
Joined: 17 May 2009
Posts: 952
Lоcаtion: Пушкино, МО
Age: 39
Name: Дмитрий
Image


Cборник концертных выступлений группы и студийных треков, не попавших на альбомы группы Rainbow. Альбом был выпущен в 1986-м году.
В альбоме было ошибочно указано, что на ударных в «Weiss Heim» играл Бобби Рондинелли, в то время как на самом деле там играл Кози Пауэлл.
«Difficult to Cure» записана на последнем выступлении группы в Японии в 1984 году при участии оркестра.

Жанр: Hard Rock
Происхождение исполнителя: Англия
Год издания: 1986
Год издания данного носителя: 1986
Страна-производитель носителя: Япония
Аудио кодек: FLAC
Тип рипа: image+.cue
Битрейт аудио: lossless
Продолжительность: 73:12
Рип: Собственный
Лейбл: POLYDOR K.K.
Каталоговый номер: P38P-20040
Матрица: P38P-20040-A5F 12 V (JVC)

Треклист:
1. Spotlight Kid (Ричи Блэкмор, Roger Glover) 6:05 - Tokyo 1984 (Live)
2. I Surrender (Russ Ballard) 5:43- Tokyo 1984 (Live)
3. Miss Mistreated (Джо Лин Тёрнер, Blackmore, David Rosenthal) 4:22- Tokyo 1984 (Live)
4. Jealous Lover (Turner, Blackmore) 3:12 - studio recording, 1981/ B-side of Can’t Happen Here single.
5. Can’t Happen Here (Blackmore, Glover) 4:16 - Nassau, 1981 (Live)(actually from Boston, 1981)
6. Since You Been Gone (Ballard) 3:47 - Monsters Of Rock Festival, Castle Donington, England 1980 (Live)
7. Bad Girl (Blackmore, Glover) 4:52- Outtake/ B-side of Since You Been Gone single
8. Difficult to Cure (Ludwig van Beethoven; rearranged by Blackmore, Glover, Дон Эйри) 11:17 - Tokyo 1984 (Live)
9. Stone Cold (Turner, Blackmore, Glover) 4:27 - San Antonio, 1982 (Live)
10. Power (Turner, Blackmore, Glover) 4:28 - San Antonio, 1982 (Live)
11. Man on the Silver Mountain (Ронни Джеймс Дио, Blackmore) 8:18 - Atlanta, 1978 (Live)
12. Long Live Rock ’n’ Roll (Dio, Blackmore) 7:11 - Atlanta, 1978 (Live)
13. Weiss Heim (Blackmore) 5:14 - Outtake/ B-side of All Night Long single

"Куй"
REM GENRE "Hard Rock"
REM DATE 1986
REM DISCID B711280D
REM COMMENT "ExactAudioCopy v0.99pb5"
PERFORMER "Rainbow"
TITLE "Finyl Vinyl [P38P-20040]"
FILE "Rainbow - Finyl Vinyl [P38P-20040].flac" WAVE
TRACK 01 AUDIO
TITLE "Spotlight Kid"
PERFORMER "Rainbow"
INDEX 00 00:00:00
INDEX 01 00:00:37
TRACK 02 AUDIO
TITLE "I Surrender"
PERFORMER "Rainbow"
INDEX 00 06:03:38
INDEX 01 06:05:15
TRACK 03 AUDIO
TITLE "Miss Mistreated"
PERFORMER "Rainbow"
INDEX 01 11:48:00
TRACK 04 AUDIO
TITLE "Jealous Lover"
PERFORMER "Rainbow"
INDEX 00 16:08:63
INDEX 01 16:10:05
TRACK 05 AUDIO
TITLE "Can't Happen Here"
PERFORMER "Rainbow"
INDEX 00 19:21:38
INDEX 01 19:22:40
TRACK 06 AUDIO
TITLE "Since You Been Gone"
PERFORMER "Rainbow"
INDEX 00 23:37:38
INDEX 01 23:38:37
TRACK 07 AUDIO
TITLE "Bad Girl"
PERFORMER "Rainbow"
INDEX 00 27:24:13
INDEX 01 27:25:12
TRACK 08 AUDIO
TITLE "Difficult To Cure"
PERFORMER "Rainbow"
INDEX 00 32:15:63
INDEX 01 32:17:00
TRACK 09 AUDIO
TITLE "Stone Cold"
PERFORMER "Rainbow"
INDEX 00 43:29:38
INDEX 01 43:34:05
TRACK 10 AUDIO
TITLE "Power"
PERFORMER "Rainbow"
INDEX 01 48:01:27
TRACK 11 AUDIO
TITLE "Man On The Silver Mountain"
PERFORMER "Rainbow"
INDEX 00 52:27:63
INDEX 01 52:29:50
TRACK 12 AUDIO
TITLE "Long Live Rock 'n' Roll"
PERFORMER "Rainbow"
INDEX 00 60:45:63
INDEX 01 60:47:37
TRACK 13 AUDIO
TITLE "Weiss Heim"
PERFORMER "Rainbow"
INDEX 00 67:54:31
INDEX 01 67:58:37


"Лог"
Exact Audio Copy V0.99 prebeta 5 from 4. May 2009

EAC extraction logfile from 13. April 2010, 10:16

Rainbow / Finyl Vinyl [P38P-20040]

Used drive : Optiarc DVD RW AD-7200A Adapter: 0 ID: 0

Read mode : Secure
Utilize accurate stream : Yes
Defeat audio cache : Yes
Make use of C2 pointers : No

Read offset correction : 48
Overread into Lead-In and Lead-Out : No
Fill up missing offset samples with silence : Yes
Delete leading and trailing silent blocks : No
Null samples used in CRC calculations : Yes
Used interface : Native Win32 interface for Win NT & 2000

Used output format : User Defined Encoder
Selected bitrate : 128 kBit/s
Quality : High
Add ID3 tag : No
Command line compressor : C:\Program Files\Exact Audio Copy\Flac\flac.exe
Additional command line options : -8 -V -T "artist=%a" -T "title=%t" -T "album=%g" -T "date=%y" -T "tracknumber=%n" -T "genre=%m" -T "comment=EAC 0.9beta4 / FLAC 1.1.0 q6" %s


TOC of the extracted CD

Track | Start | Length | Start sector | End sector
---------------------------------------------------------
1 | 0:00.37 | 6:04.53 | 37 | 27389
2 | 6:05.15 | 5:42.60 | 27390 | 53099
3 | 11:48.00 | 4:22.05 | 53100 | 72754
4 | 16:10.05 | 3:12.35 | 72755 | 87189
5 | 19:22.40 | 4:15.72 | 87190 | 106386
6 | 23:38.37 | 3:46.50 | 106387 | 123386
7 | 27:25.12 | 4:51.63 | 123387 | 145274
8 | 32:17.00 | 11:17.05 | 145275 | 196054
9 | 43:34.05 | 4:27.22 | 196055 | 216101
10 | 48:01.27 | 4:28.23 | 216102 | 236224
11 | 52:29.50 | 8:17.62 | 236225 | 273561
12 | 60:47.37 | 7:11.00 | 273562 | 305886
13 | 67:58.37 | 5:13.53 | 305887 | 329414


Range status and errors

Selected range

Filename Y:\Музыка\Rainbow\1986 Finyl Vinyl\Rainbow - Finyl Vinyl [P38P-20040].wav

Peak level 81.9 %
Range quality 99.9 %
Copy CRC A73F8051
Copy OK

No errors occurred

End of status report


Народ

_________________
Витасу до Даймонда как Алсу до Руссоса | При переразмещении - спрашивать разрешение!!


Top
 Profile  
 
 
PostPosted: 20 Apr 2010 
udo
User avatar
Joined: 01 Mar 2008
Posts: 2343
Lоcаtion: Краснодар
Age: 47
Name: РОМАН
спасибо, а чем японец отличается?


Top
 Profile E-mail  
 
 
PostPosted: 20 Apr 2010 
ыыыы
User avatar
Joined: 17 May 2009
Posts: 952
Lоcаtion: Пушкино, МО
Age: 39
Name: Дмитрий
я лично не сравнивал :)

_________________
Витасу до Даймонда как Алсу до Руссоса | При переразмещении - спрашивать разрешение!!


Top
 Profile  
 
Display posts from previous:  Sort by  
Post new topic Reply to topic  [ 3 posts ] 

All times are UTC + 3 hours


Who is online

Users browsing this forum: No registered users and 2 guests


You cannot post new topics in this forum
You cannot reply to topics in this forum
You cannot edit your posts in this forum
You cannot delete your posts in this forum
You cannot post attachments in this forum

Search for:
Яндекс.Метрика
Powered by phpBB © 2000, 2002, 2005, 2007 phpBB Group